My City HomeKid-friendly home simulator with potential for lots of fun | Spartakus and the Sun Beneath the Sea | Google Shopping

Скачать через торрент Сын розовой пантеры Son of the Pink Panther Фильм бесплатно в хорошем качестве torrent

Скачивайте на UnionPeer.org фильмы через торрент без регистрации. Новинки кино в хорошем качестве через торрент. На UnionPeer.org можно скачать через торрент фильмы 2014 и 2015 годов. Самые новые фильмы.

Скачать торрент Сын розовой пантеры Son of the Pink Panther бесплатно через .torrent фильм мультфильм сериал

Статистика раздачи
Размер:  17.16 GB   |    Зарегистрирован:  4 месяца 3 дня   |    .torrent скачан:  28 раз   |   
Раздают:  1  
   
загрузка...
 
Автор Сообщение

Galfimbul

avatar Galfimbul


Сын розовой пантеры / Son of the Pink Panther

Страна: Италия, США
Студия: Filmauro, International Traders, United Artists
Жанр: комедия, детектив
Год выпуска: 1993
Продолжительность: 01:32:38
Перевод 1: Профессиональный (дублированный) ТНТ
Перевод 2: Профессиональный (двухголосый закадровый) НТВ+
Перевод 3: Авторский (одноголосый закадровый) Алексеев
Перевод 4: Авторский (одноголосый закадровый) Михалёв
Субтитры: английские
Оригинальная аудиодорожка: английский
Режиссер: Блейк Эдвардс / Blake Edwards
В ролях: Роберто Бениньи, Херберт Лом, Клаудия Кардинале, Шабана Азми, Дебра Фарентино, Дженнифер Эдвардс, Роберт Дави, Марк Шнайдер, Майк Старр, Кенни Спэлдинг, Антон Роджерс, Берт Квук, Грэм Старк, Оливер Коттон, Аарон Ипале, Наташа Павлович, Генри Гудман, Дермот Краули, Херб Тэнни, Лиз Смит
Описание: Банда похищает принцессу королевства Лугаш и требует от короля отречься от престола и заплатить 100 миллионов долларов. Расследование ведет комиссар Шарль Дрейфус. Нежелательным свидетелем для бандитов становится инспектор Жак Гамбрелли, оказывающийся к ужасу Дрейфуса сыном умершего десять лет назад Клузо…
Доп. информация: За синхронизацию авторских переводов и предоставление английских субтитров (SRT) большое спасибо Нордер.
Автор рипа: Captain Hollywood

Тип релиза: BDRemux 1080p
Контейнер: MKV

Видео: MPEG-4 AVC Video 23979 kbps 1080p / 23.976 fps / 16:9 / High Profile 4.1
Аудио 1: Dolby Digital Audio Russian 192 kbps 2.0 / 48 kHz / 192 kbps / DN -4dB | ТНТ
Аудио 2: Dolby Digital Audio Russian 192 kbps 2.0 / 48 kHz / 192 kbps / DN -4dB | НТВ+
Аудио 3: Dolby Digital Audio Russian 192 kbps 2.0 / 48 kHz / 192 kbps / DN -4dB | Алексеев
Аудио 4: Dolby Digital Audio Russian 224 kbps 2.0 / 48 kHz / 224 kbps / DN -4dB | Михалёв
Аудио 5: DTS-HD Master Audio English 1733 kbps 2.0 / 48 kHz / 1733 kbps / 16-bit (DTS Core: 2.0 / 48 kHz / 1509 kbps / 16-bit)
Формат субтитров: softsub (SRT)
General
Unique ID : 241558774618829556321064829564904972377 (0xB5BA8719C21A2FC498E083CDA7FEA059)
Format : Matroska
Format version : Version 2
File size : 17.2 GiB
Duration : 1h 32mn
Overall bit rate mode : Variable
Overall bit rate : 26.5 Mbps
Movie name : Son.of.the.Pink.Panther.-=Captain Hollywood=-
Encoded date : UTC 2018-06-10 12:29:41
Writing application : mkvmerge v7.8.0 ('River Man') 32bit built on Apr 3 2015 12:11:22
Writing library : libebml v1.3.1 + libmatroska v1.4.2

Video
ID : 1
Format : AVC
Format/Info : Advanced Video Codec
Format profile : [email protected]
Format settings, CABAC : Yes
Format settings, ReFrames : 4 frames
Codec ID : V_MPEG4/ISO/AVC
Duration : 1h 32mn
Bit rate mode : Variable
Maximum bit rate : 35.0 Mbps
Width : 1 920 pixels
Height : 1 080 pixels
Display aspect ratio : 16:9
Frame rate mode : Constant
Frame rate : 23.976 fps
Standard : NTSC
Color space : YUV
Chroma subsampling : 4:2:0
Bit depth : 8 bits
Scan type : Progressive
Default : Yes
Forced : No
Color primaries : BT.709
Transfer characteristics : BT.709
Matrix coefficients : BT.709
Color range : Limited

Audio #1
ID : 2
Format : AC-3
Format/Info : Audio Coding 3
Mode extension : CM (complete main)
Format settings, Endianness : Big
Codec ID : A_AC3
Duration : 1h 32mn
Bit rate mode : Constant
Bit rate : 192 Kbps
Channel(s) : 2 channels
Channel positions : Front: L R
Sampling rate : 48.0 KHz
Bit depth : 16 bits
Compression mode : Lossy
Stream size : 127 MiB (1%)
Title : Dub (ТНТ)
Language : Russian
Default : Yes
Forced : No

Audio #2
ID : 3
Format : AC-3
Format/Info : Audio Coding 3
Mode extension : CM (complete main)
Format settings, Endianness : Big
Codec ID : A_AC3
Duration : 1h 32mn
Bit rate mode : Constant
Bit rate : 192 Kbps
Channel(s) : 2 channels
Channel positions : Front: L R
Sampling rate : 48.0 KHz
Bit depth : 16 bits
Compression mode : Lossy
Stream size : 127 MiB (1%)
Title : DVO (НТВ+)
Language : Russian
Default : No
Forced : No

Audio #3
ID : 4
Format : AC-3
Format/Info : Audio Coding 3
Mode extension : CM (complete main)
Format settings, Endianness : Big
Codec ID : A_AC3
Duration : 1h 32mn
Bit rate mode : Constant
Bit rate : 192 Kbps
Channel(s) : 2 channels
Channel positions : Front: L R
Sampling rate : 48.0 KHz
Bit depth : 16 bits
Compression mode : Lossy
Stream size : 127 MiB (1%)
Title : AVO (Алексеев)
Language : Russian
Default : No
Forced : No

Audio #4
ID : 5
Format : AC-3
Format/Info : Audio Coding 3
Mode extension : CM (complete main)
Format settings, Endianness : Big
Codec ID : A_AC3
Duration : 1h 32mn
Bit rate mode : Constant
Bit rate : 224 Kbps
Channel(s) : 2 channels
Channel positions : Front: L R
Sampling rate : 48.0 KHz
Bit depth : 16 bits
Compression mode : Lossy
Stream size : 148 MiB (1%)
Title : AVO (Михалёв)
Language : Russian
Default : No
Forced : No

Audio #5
ID : 6
Format : DTS
Format/Info : Digital Theater Systems
Format profile : MA / Core
Mode : 16
Format settings, Endianness : Big
Codec ID : A_DTS
Duration : 1h 32mn
Bit rate mode : Variable
Bit rate : Unknown / 1 509 Kbps
Channel(s) : 2 channels
Channel positions : Front: L R
Sampling rate : 48.0 KHz
Bit depth : 16 bits
Compression mode : Lossless / Lossy
Title : Original
Language : English
Default : No
Forced : No

Text
ID : 7
Format : UTF-8
Codec ID : S_TEXT/UTF8
Codec ID/Info : UTF-8 Plain Text
Language : English
Default : No
Forced : No


Трекер:  [ 14-Июн-2018 08:30 ]

  

Скачать .torrent

Размер .torrent файла 43 KB


Размер: 17.16 GB
Хэш (hash) релиза: 9999dd222ea078f621a0a7eaf79444ce3e4e0d68
Подписка на обновления:

Еще никто не оставлял запись к записи скачать торрент Сын розовой пантеры Son of the Pink Panther . Будь первым!

!Обратная связь