17-06-2018, 06:10 | Watch movie | Yuri Natsu -Kagaya Inn-

Скачать через торрент Ginga Nagareboshi Gin Серебряный клык бесплатно Аниме Все серии на русском torrent

Статистика раздачи
Размер:  21.67 GB   |    Зарегистрирован:  2 месяца 4 дня   |    .torrent скачан:  36 раз   |   
Раздают:  1  
   
загрузка...
 
Автор Сообщение

Galfimbul

avatar Galfimbul


Ginga Nagareboshi Gin | Серебряный клык | Silver Fang
Выпуск: c 07.04.1986 по 22.09.1986
Страна: Япония
Жанр: фэнтези, приключения, сёнэн
Продолжительность: ТВ (21 эп.), 23 мин.
Перевод: Carrier88
Озвучил: sad_kit
Тех. поддержка: zdvig_s, GoDray
Режиссёр: Кацумата Томохару
Автор оригинала: Такахаси Ёсихиро

Описание:5 лет назад охотник Гохеи Такеда прострелил глаз огромному медведю Акакабуто. В этой схватке погиб его пёс Широ. При новой встрече с Акакабуто погибает сын Широ - Рики. Теперь, недавно родившийся сын Рики - Гин, должен стать настоящим охотничьим псом и сразиться с Акакабуто. Так начинается история яростной битвы между Акакабуто и третьим потомком охотников на медведей.
Качество: DVDRemux
Контейнер: mkv
Видео: 720x576, 5713 - 9000 Кбит/сек, 25 кадр/сек
Аудио:
1. русский, 160 Кбит/сек, 48 КГц, 2 кан, AAC
2. японский, 224 Кбит/сек, 48 КГц, 2 кан, AC3
Субтитры: финские, шведские
General

Общее
Уникальный идентификатор : 173706413915843417407713695861207863615 (0x82AEA36ECA2120F2D9E0A4092292113F)
Полное имя : D:\Ремуксы\[AORE] Silver Fang\1. The Small Hero... Silver's Birth!.mkv
Формат : Matroska
Версия формата : Version 4 / Version 2
Размер файла : 1018 Мбайт
Продолжительность : 23 м. 18 с.
Режим общего битрейта : Переменный
Общий поток : 6108 Кбит/сек
Дата кодирования : UTC 2018-05-04 15:48:11
Программа кодирования : mkvmerge v22.0.0 ('At The End Of The World') 64-bit
Библиотека кодирования : libebml v1.3.5 + libmatroska v1.4.8

Видео
Идентификатор : 1
Формат : MPEG Video
Версия формата : Version 2
Профиль формата : [email protected]
Настройки формата : BVOP
Параметр BVOP формата : Да
Параметр матрицы формата : По умолчанию
Параметр GOP формата : M=3, N=13
Структура изображения : Frame
Идентификатор кодека : V_MPEG2
Идентификатор кодека/Информация : MPEG 1 or 2 Video
Продолжительность : 23 м. 18 с.
Вид битрейта : Переменный
Битрейт : 5713 Кбит/сек
Максимальный битрейт : 9000 Кбит/сек
Ширина : 720 пикселей
Высота : 576 пикселей
Соотношение сторон : 4:3
Режим частоты кадров : Постоянный
Частота кадров : 25,000 кадров/сек
Стандарт вещания : PAL
Цветовое пространство : YUV
Субдискретизация насыщенности : 4:2:0
Битовая глубина : 8 бит
Тип развёртки : Чересстрочная
Порядок развёртки : Верхнее поле первое
Метод сжатия : С потерями
Бит/(Пиксели*Кадры) : 0.551
Временной код первого кадра : 10:00:00:08
Оригинал временного кода : Group of pictures header
GOP, открыто/закрыто : Открыто
Размер потока : 952 Мбайт (94%)
Default : Нет
Forced : Нет
Основные цвета : BT.601 PAL
Характеристики трансфера : BT.470 System B/G
Коэффициенты матрицы : BT.470 System B/G

Аудио #1
Идентификатор : 2
Формат : AAC
Формат/Информация : Advanced Audio Codec
Профиль формата : LC
Идентификатор кодека : A_AAC-2
Продолжительность : 23 м. 18 с.
Битрейт : 165 Кбит/сек
Каналы : 2 канала
Расположение каналов : Front: L R
Частота : 48,0 КГц
Частота кадров : 46,875 кадров/сек (1024 SPF)
Метод сжатия : С потерями
Размер потока : 27,6 Мбайт (3%)
Язык : Russian
Default : Да
Forced : Нет

Аудио #2
Идентификатор : 3
Формат : AC-3
Формат/Информация : Audio Coding 3
Идентификатор кодека : A_AC3
Продолжительность : 23 м. 18 с.
Вид битрейта : Постоянный
Битрейт : 224 Кбит/сек
Каналы : 2 канала
Расположение каналов : Front: L R
Частота : 48,0 КГц
Частота кадров : 31,250 кадров/сек (1536 SPF)
Битовая глубина : 16 бит
Метод сжатия : С потерями
Размер потока : 37,3 Мбайт (4%)
Язык : Japanese
ServiceKind/String : Complete Main
Default : Нет
Forced : Нет

Текст #1
Идентификатор : 4
Формат : VobSub
Режим смешивания : zlib
Идентификатор кодека : S_VOBSUB
Идентификатор кодека/Информация : Picture based subtitle format used on DVDs
Продолжительность : 22 м. 51 с.
Битрейт : 3285 бит/сек
ElementCount : 160
Размер потока : 550 Кбайт (0%)
Язык : Finnish
Default : Да
Forced : Нет

Текст #2
Идентификатор : 5
Формат : VobSub
Режим смешивания : zlib
Идентификатор кодека : S_VOBSUB
Идентификатор кодека/Информация : Picture based subtitle format used on DVDs
Продолжительность : 22 м. 55 с.
Битрейт : 3360 бит/сек
ElementCount : 163
Размер потока : 564 Кбайт (0%)
Язык : Swedish
Default : Нет
Forced : Нет

01. The Small Hero... Silver's Birth!
02. Gin's Effort For The Other Side...There Is A Tomorrow!
03. Now We Know Silver's Friendship Is For Life!
04. The Challenge Of Akakabuto's Bear Family!
05. Victory! Although The Scars Come!
06. Howl! The Mountain Calls!
07. Scarred In Your Heart Forever! The Oath Of The Group!
08. Now! Go On The Journey Of An Adult!
09. Demon Dog! The Three Kai Brothers!
10. Monster! Moss's Soldiers On The Rock Peak!
11. Patience Dog! The Dark Shadow Of The Iga Village!
12. It's Dangerous Ben! The Confrontation Of The Ninja Grounds!
13. Justice! The Orders Of The Leader!
14. Advancing! The Small One Is The Young Leader!
15. Crimson Cherryblossom! The Strongest One Of All!
16. The Tears Arrive! A Close Companion Meets Their Death!
17. Now, We Realise! The Origin Of The Leader!
18. Fight! The Strongest One Throws Away Their Life!
19. Pitterful! The Last Moment Of Crimson Cherryblossom!
20. Angry Silver! Now Show Your Courage!
21. Silver! Go Upon The Journey Of A New Leadership!

<div class="sp-wrap">
<div class="sp-head folded">Порядок просмотра</div>
<div class="sp-body">
<div style="margin-left: 2em" class="post-ul">#1 Ginga Nagareboshi Gin - ТВ (21 эп.), адаптация манги, 1986
#2 Ginga Densetsu Weed - ТВ (26 эп.), адаптация манги, 2005</div>
</div>
</div>
(bubuzavr) - Непережатый видеоряд, субтитры, отсутствие хардсаба.
<div class="sp-wrap">
<div class="sp-head folded">Сравнение</div>
<div class="sp-body">Данная раздача


В той раздаче

Данная раздача


В той раздаче

Данная раздача


В той раздаче
</div>
</div>


Трекер:  [ 14-Июн-2018 06:30 ]

  

Скачать .torrent

Размер .torrent файла 110 KB


Размер: 21.67 GB
Хэш (hash) релиза: 2f3b1276c55ecef804ac24da1321feb421ee9919
Подписка на обновления:

Еще никто не оставлял запись к записи скачать торрент Ginga Nagareboshi Gin Серебряный клык . Будь первым!

!Обратная связь