Programas | Planning and Leading a Complex Team Activity | Hakuouki Junrenka

Скачать через торрент музыку Okee - The Hidden Worlds - 2018, MP3, 320 kbps бесплатно без регистрации torrent

Статистика раздачи
Размер:  214 MB   |    Зарегистрирован:  3 месяца 10 дней   |    .torrent скачан:  37 раз   |   
Раздают:  1  
   
загрузка...
 
Автор Сообщение

Galfimbul

avatar Galfimbul


Okee / The Hidden Worlds

Жанр: Drum'n'bass, Atmospheric
Страна исполнителя (группы): Serbia
Дата издания: 11 Jun 2018
Аудиокодек: MP3
Тип рипа: tracks
Битрейт аудио: 320 kbps
Продолжительность: 01:32:08
Источник (релизёр): freake (MKD)

Треклист:

01 Mysteries of iO 7:38
02 Navahu 8:12
03 Seas of Naiad 7:46
04 Far River 6:40
05 Starmoods 7:14
06 Midnight Medley 7:13
07 Timelines 7:30
08 Fractals (feat. Thesis) 8:28
09 Sunrise In The Third System 8:09
10 Vision Quest 7:57
11 The Seeker 7:43
12 Red Earth - Echoes of Transition (feat. Voyager) 7:39
foobar2000 1.3.15 / Dynamic Range Meter 1.1.1log date: 2018-06-14 00:43:47

--------------------------------------------------------------------------------Analyzed: Okee, Voyager / The Hidden Worlds (1) Okee / The Hidden Worlds (2-11) Thesis, Okee / The Hidden Worlds (12)--------------------------------------------------------------------------------

DR Peak RMS Duration Track--------------------------------------------------------------------------------DR6 0.00 dB -8.00 dB 7:39 12-Red Earth - Echoes of Transition (Original Mix)DR7 0.00 dB -9.93 dB 7:38 01-Mysteries of iO (Original Mix)DR7 0.00 dB -9.91 dB 8:12 02-Navahu (Original Mix)DR8 0.00 dB -10.62 dB 7:46 03-Seas of Naiad (Original Mix)DR8 0.00 dB -11.02 dB 6:40 04-Far River (Original Mix)DR7 0.00 dB -9.01 dB 7:14 05-Starmoods (Original Mix)DR7 0.00 dB -9.57 dB 7:13 06-Midnight Medley (Original Mix)DR6 0.00 dB -8.18 dB 7:30 07-Timelines (Original Mix)DR5 0.00 dB -7.00 dB 8:09 09-Sunrise In The Third System (Original Mix)DR6 0.00 dB -8.24 dB 7:57 10-Vision Quest (Original Mix)DR5 0.00 dB -6.53 dB 7:43 11-The Seeker (Original Mix)DR7 0.00 dB -9.09 dB 8:28 08-Fractals (Original Mix)--------------------------------------------------------------------------------

Number of tracks: 12Official DR value: DR7

Samplerate: 44100 HzChannels: 2Bitrate: 320 kbpsCodec: MP3================================================================================
Slobodan Oljača otherwise known as Okee, is a well recognised music producer hailing from Serbia. Inspired by deep space travelling and futuristic soundscapes, he has been a long supporter of deep atmospheric drum 'n' bass for more than decade. Over the years Okee has focused more on his own music creating deep atmospheric drum 'n' bass. Okee seeks inspiration from the universe and deep space explorations, bringing you more of that atmospheric space sound from the unforgettable late 90's.


Трекер:  [ 13-Июн-2018 23:01 ]

  

Скачать .torrent

Размер .torrent файла 18 KB


Размер: 214 MB
Хэш (hash) релиза: 78201d7ca3220ce7a2c87cef4886fe63fe92454e

Еще никто не оставлял запись к записи скачать торрент Okee - The Hidden Worlds - 2018, MP3, 320 kbps . Будь первым!

!Обратная связь