Marvel’s Runaways | สำรอง EP.12 | SD Blood Hunt

Скачать через торрент Меченосец и чародейка Swordsman and Enchantress Фильм бесплатно в хорошем качестве torrent

Скачивайте на UnionPeer.org фильмы через торрент без регистрации. Новинки кино в хорошем качестве через торрент. На UnionPeer.org можно скачать через торрент фильмы 2014 и 2015 годов. Самые новые фильмы.

Скачать торрент Меченосец и чародейка Swordsman and Enchantress бесплатно через .torrent фильм мультфильм сериал

Статистика раздачи
Размер:  4.39 GB   |    Зарегистрирован:  6 дней   |    .torrent скачан:  35 раз   |   
Раздают:  1  
   
загрузка...
 
Автор Сообщение

Galfimbul

avatar Galfimbul


Меченосец и чародейка / Swordsman and Enchantress / Xiao shi yi lang

Страна: Гонконг
Студия: Shaw Brothers
Жанр: боевые искусства
Год выпуска: 1978
Продолжительность: 01:26:16

Перевод: Одноголосый закадровый Shaman
Субтитры: английские, индонезийские, малайские
Оригинальная аудиодорожка: китайский

Режиссер: Чор Юэнь / Chor Yuen

В ролях: Ти Лунг, Лау Винг, Чинг Ли, Лили Ли, Норман Чу, Кэнди Вэн, Танг Чинг

Описание: Сражаясь за приз-обладание магическим мечем, двое мастера кунгфу попадают в лабиринт ловушек из которого выбраться не просто.

Бонусы: Трейлер к фильму

Меню: Статичное английское

Сэмпл: http://multi-up.com/1201321

Тип релиза: DVD9(Custom)
Контейнер: DVD-Video

Видео: NTSC 16:9 (720x480) VBR
Аудио: Russian (Dolby AC3, 2 ch) 192Kbps
Аудио 2: Cantonese (Dolby AC3, 6 ch) 384Kbps
Формат субтитров: prerendered (DVD/IDX+SUB)
Информация о проигрывателе:
Код зоны проигрывателя: Не указано
Код зоны диска: 1, 2, 3, 4, 5, 6, All

Полное имя : D:\КИНО РУТР\ДЛЯ рутрекера\Меченосец\VIDEO_TS\VTS_01_1.VOB
Формат : MPEG-PS
Размер файла : 1024 Мбайт
Продолжительность : 21 м.
Режим общего битрейта : Переменный
Общий поток : 6756 Кбит/сек

Видео
Идентификатор : 224 (0xE0)
Формат : MPEG Video
Версия формата : Version 2
Профиль формата : [email protected]
Параметр BVOP формата : Да
Параметр матрицы формата : Выборочная
Параметр GOP формата : M=3, N=15
Продолжительность : 21 м.
Вид битрейта : Переменный
Битрейт : 6045 Кбит/сек
Ширина : 720 пикселей
Высота : 480 пикселей
Соотношение сторон : 16:9
Частота кадров : 29,970 кадров/сек
Стандарт вещания : NTSC
Цветовое пространство : YUV
Субдискретизация насыщенности : 4:2:0
Битовая глубина : 8 бит
Тип развёртки : Чересстрочная
Порядок развёртки : Верхнее поле первое
Метод сжатия : С потерями
Бит/(Пиксели*Кадры) : 0.584
Временной код первого кадра : 10:00:10:14
Оригинал временного кода : Group of pictures header
Размер потока : 916 Мбайт (89%)

Аудио #1
Идентификатор : 189 (0xBD)-128 (0x80)
Формат : AC-3
Формат/Информация : Audio Coding 3
Расширение режима : CM (complete main)
Параметр Endianness формата : Big
Режим смешивания : DVD-Video
Продолжительность : 21 м.
Вид битрейта : Постоянный
Битрейт : 192 Кбит/сек
Каналы : 2 канала
Расположение каналов : Front: L R
Частота : 48,0 КГц
Битовая глубина : 16 бит
Метод сжатия : С потерями
Задержка видео : -66 мс.
Размер потока : 29,1 Мбайт (3%)

Аудио #2
Идентификатор : 189 (0xBD)-129 (0x81)
Формат : AC-3
Формат/Информация : Audio Coding 3
Расширение режима : CM (complete main)
Параметр Endianness формата : Big
Режим смешивания : DVD-Video
Продолжительность : 21 м.
Вид битрейта : Постоянный
Битрейт : 384 Кбит/сек
Каналы : 6 каналов
Расположение каналов : Front: L C R, Side: L R, LFE
Частота : 48,0 КГц
Битовая глубина : 16 бит
Метод сжатия : С потерями
Задержка видео : -66 мс.
Размер потока : 58,2 Мбайт (6%)

Текст #1
Идентификатор : 189 (0xBD)-32 (0x20)
Формат : RLE
Формат/Информация : Run-length encoding
Режим смешивания : DVD-Video

Текст #2
Идентификатор : 189 (0xBD)-33 (0x21)
Формат : RLE
Формат/Информация : Run-length encoding
Режим смешивания : DVD-Video

Текст #3
Идентификатор : 189 (0xBD)-34 (0x22)
Формат : RLE
Формат/Информация : Run-length encoding
Режим смешивания : DVD-Video

Текст #4
Идентификатор : 189 (0xBD)-35 (0x23)
Формат : RLE
Формат/Информация : Run-length encoding
Режим смешивания : DVD-Video


Трекер:  [ 13-Июн-2018 22:30 ]

  

Скачать .torrent

Размер .torrent файла 24 KB


Размер: 4.39 GB
Хэш (hash) релиза: 53046fc94eec43ae5a997c42a70d3b215c173b95
Подписка на обновления:

Торренты, похожие на Меченосец и чародейка Swordsman and Enchantress скачать торрент

Форум Название Автор Размер S L Добавлен
Азиатские фильмы ·· Меченосец и чародейка / Меченосец и колдунья / Swordsman and Enchantress / Xiao shi yi lang (Чор Юэнь / Chor Yuen) [1978, Гонконг, боевые искусства, DVDRip] VO (Shaman) Galfimbul 14756311041.37 GB 0 0 1529166616

19:30

16-Июн-18

Еще никто не оставлял запись к записи скачать торрент Меченосец и чародейка Swordsman and Enchantress . Будь первым!

!Обратная связь