Policier | Pedro Coelho - Legendado Animação / Aventura / Comédia / Família Idioma: Inglês 2018 MKV / MP4 Torrent DownloadVídeo 10 / Áudio 10CompletoSinopse: Pedro Coelho é um animal rebelde que apronta todas no quintal e até dentro da casa do Mr. McGregor (Domhnall Gleeson), com quem trava uma dura...

| Der unglaubliche Hulk

Скачать через торрент Американский папаша! Американский папа! Фильм бесплатно в хорошем качестве torrent

Скачивайте на UnionPeer.org фильмы через торрент без регистрации. Новинки кино в хорошем качестве через торрент. На UnionPeer.org можно скачать через торрент фильмы 2014 и 2015 годов. Самые новые фильмы.

Скачать торрент Американский папаша! Американский папа! бесплатно через .torrent фильм мультфильм сериал

Статистика раздачи
Размер:  6 GB   |    Зарегистрирован:  2 месяца 8 дней   |    .torrent скачан:  39 раз   |   
Раздают:  1  
   
загрузка...
 
Автор Сообщение

Galfimbul

avatar Galfimbul


Американский папаша!
American Dad!
Сезон 13
Серии: 1-12 из ??
Страна: США
Производство: 20th Century Fox Television
Жанр: Мультфильм, фэнтези, комедия, приключения
Продолжительность: ~00:21:09
Года выпуска: 2017-2018
Перевод:

Любительский (двухголосный закадровый) | Студия ColdFilm
Оригинальная звуковая дорожка (English)

Русские субтитры: нет
Английские субтитры: есть
Режиссёр: Сет МакФарлейн / Seth MacFarlane
Сюжет мультсериала разворачивается вокруг семьи Смитов. Папа Стэн — агент ЦРУ и республиканец до мозга костей, силен телом, но глуп разумом. Имеет мужественнейший подбородок и всегда выглаженный костюм. Франсин — жена Стэна и мать детей. Типичная домохозяйка. В меру мудрая, в меру глупая. К тому же, не знает своих настоящих родителей. Сын — Стив. У него есть определенные проблемы в общении с противоположным полом (девушки с ним общаются порой, только под дулом табельного оружия отца). Дочь Хэйли — отчаянная либералка, имеет «хиппарские» черты, но хиппи не является, хоть и защищает природу, и принимает легкие наркотики.

Все раздачи мультсериала
Качество: WEB-DL 720p
Формат: MKV
Видео: 1280x720 (16:9) at 23.976 fps, [email protected], ~4000 kbps avg, ~0.178bpp 2-9 эпизоды
Видео: 1280x720 (16:9) at 23.976 fps, [email protected], ~1200 kbps avg, ~0.060bpp
Аудио:

Russian: 48 kHz, AC3 Dolby Digital, 2.0 ch, ~192 kbps | Студия ColdFilm [без рекламы]
English: 48 kHz, AC3 Dolby Digital, 5.1 ch, ~384 kbps

Субтитры: English (*.srt)
GeneralUnique ID : 276135112565254599127862305219072774905 (0xCFBDB02DC8D68C6A2658B356E7C852F9)Complete name :\American Dad - Season 13\American.Dad.S13E03.The.Census.of.the.Lambs.720p.WEB-DL.h264.AC3.MVO.Eng.mkvFormat : MatroskaFormat version : Version 4 / Version 2File size : 702 MiBDuration : 21 min 9 sOverall bit rate : 4 639 kb/sMovie name : The Census of the LambsEncoded date : UTC 2018-06-13 17:22:10Writing application : mkvmerge v24.0.0 ('Beyond The Pale') 64-bitWriting library : libebml v1.3.6 + libmatroska v1.4.9Attachments : poster_american.dad.jpg

VideoID : 1Format : AVCFormat/Info : Advanced Video CodecFormat profile : [email protected] settings : 2 Ref FramesFormat settings, CABAC : NoFormat settings, ReFrames : 2 framesCodec ID : V_MPEG4/ISO/AVCDuration : 21 min 9 sBit rate : 4 060 kb/sWidth : 1 280 pixelsHeight : 718 pixelsDisplay aspect ratio : 16:9Frame rate mode : ConstantFrame rate : 23.976 (24000/1001) FPSColor space : YUVChroma subsampling : 4:2:0Bit depth : 8 bitsScan type : ProgressiveBits/(Pixel*Frame) : 0.184Stream size : 614 MiB (88%)Title : The Census of the LambsLanguage : EnglishDefault : YesForced : NoColor range : LimitedColor primaries : BT.709Transfer characteristics : BT.709Matrix coefficients : BT.709

Audio #1ID : 2Format : AC-3Format/Info : Audio Coding 3Codec ID : A_AC3Duration : 21 min 9 sBit rate mode : ConstantBit rate : 192 kb/sChannel(s) : 2 channelsChannel positions : Front: L RSampling rate : 48.0 kHzFrame rate : 31.250 FPS (1536 SPF)Bit depth : 16 bitsCompression mode : LossyStream size : 29.1 MiB (4%)Title : MVO ColdFilmLanguage : RussianService kind : Complete MainDefault : YesForced : No

Audio #2ID : 3Format : AC-3Format/Info : Audio Coding 3Codec ID : A_AC3Duration : 21 min 9 sBit rate mode : ConstantBit rate : 384 kb/sChannel(s) : 6 channelsChannel positions : Front: L C R, Side: L R, LFESampling rate : 48.0 kHzFrame rate : 31.250 FPS (1536 SPF)Bit depth : 16 bitsCompression mode : LossyStream size : 58.1 MiB (8%)Language : EnglishService kind : Complete MainDefault : NoForced : No

TextID : 4Format : UTF-8Codec ID : S_TEXT/UTF8Codec ID/Info : UTF-8 Plain TextDuration : 21 min 4 sBit rate : 108 b/sCount of elements : 517Stream size : 16.8 KiB (0%)Language : EnglishDefault : NoForced : No

Menu00:00:00.000 : en:The Census of the Lambs00:01:25.877 : en:Intro00:01:55.907 : en:The Census of the Lambs
(Полноразмерные скриншоты открываются кликом по миниатюре)
#235 Санта, Шманта / Santa, Schmanta
#236 Параноидальный Франдроид / Paranoid Frandroid
#237 Перепись ягнят / The Census of the Lambs
#238 Мошенничество / Shell Game
#239 Фреска истории / The Mural of the Story
#240 (Вы должны) Бороться за Ваши права / (You Gotta) Strike for Your Right
#241 Клаустрофия.ТВ / Klaustastrophe.tv
#242 Смерть на вечеринке / Death by Dinner Party
#243 Бесконечные истории / The Never-Ending Stories
#244 Прирельсовый / Railroaded
#245 Мой чистый шар на цепи / My Purity Ball and Chain
#246 Оретронская тропа / OreTron Trail
#247 Злая Франсин / Mean Francine
На многих ресурсах с нумерацией сезонов творится чехарда. На мировых трекерах (как rarbg, thepiratebay) эпизоды #213-#234 идут под 14 сезоном. Общая тенденция на российских ресурсах склоняется, что это 13 сезон.
Официальный источник телеканал tbs, по которому сериал вещают с 2014 года, на своем сайте информирует, что это 12 сезон.

нумерация imdb соответствует вышеуказанному источнику

Ссылаться на общедоступный ресурс, как википедия, где может любой внести правки как пожелает, считается моветоном
Пока на данном трекере нет четкого правила по поводу нумерации этого сериала, единственно правильным решением вижу как следовать официальной нумерации



Трекер:  [ 13-Июн-2018 20:54 ]

  

Скачать .torrent

Размер .torrent файла 16 KB


Размер: 6 GB
Хэш (hash) релиза: afd56e4d5ee54a7f7449dc4c2ce5cc79e31e0b6d
Подписка на обновления:

Еще никто не оставлял запись к записи скачать торрент Американский папаша! Американский папа! . Будь первым!

!Обратная связь