aga naga hn creations 2 | rawley high- das erste semester | Танцы [S04] (2017) WEBRip

Скачать через торрент 2036, происхождение неизвестно 2036 Origin Unknown Фильм бесплатно в хорошем качестве torrent

Скачивайте на UnionPeer.org фильмы через торрент без регистрации. Новинки кино в хорошем качестве через торрент. На UnionPeer.org можно скачать через торрент фильмы 2014 и 2015 годов. Самые новые фильмы.

Скачать торрент 2036, происхождение неизвестно 2036 Origin Unknown бесплатно через .torrent фильм мультфильм сериал

Статистика раздачи
Размер:  2.22 GB   |    Зарегистрирован:  2 месяца 7 дней   |    .torrent скачан:  176 раз   |   
Раздают:  2  
   
загрузка...
 
Автор Сообщение

Galfimbul

avatar Galfimbul


2036, происхождение неизвестно /2036 Origin Unknown

Год выхода: 2018
Жанр: Фантастика
Режиссер: Хасраф Дулул
В ролях: Кэти Сакхофф, Джули Кокс, Стивен Кри, Рэй Фиарон, Изабелль Марлоу, Джо Уолтерс, Дэвид К.С. Тсе
О фильме:
Космическая экспедиция обнаруживает на поверхности Марса нечто, способное изменить жизнь человечества навсегда. Но вместо того, чтобы помочь людям раскрыть марсианскую тайну, искусственный интеллект на борту корабля берёт управление на себя.



Страна: Великобритания, Head Gear Films, Metrol Technology, Origin Unknown Films
Продолжительность: 01:35:04
Перевод: Любительский (двухголосый закадровый) | HiWay Grope

Файл
Кодек: MPEG-4 AVC/x.264
Качество: WEBRip 720p
Видео: 1280x528, 24.000 fps, ~2899 kbps, 0.179 bit/pixel
Звук:
Аудио rus: AC3, 48 kHz, 6 ch, 384 Kbps
Субтитры: отсутствуют

Реклама: присутствует

Семпл
General
Unique ID : 290315046120138878162831836686524932755 (0xDA68A4E14E48F52BCF3F6B8BA37CE293)
Complete name : E:2036.Origin.Unknown.2018.720p.WEBRip.HiWayGrope2036.Origin.Unknown.2018.720p.WEBRip.HiWayGrope.mkv
Format : Matroska
Format version : Version 4 / Version 2
File size : 2.22 GiB
Duration : 1h 35mn
Overall bit rate : 3 349 Kbps
Encoded date : UTC 2018-06-13 15:50:28
Writing application : mkvmerge v21.0.0 ('Tardigrades Will Inherit The Earth') 64-bit
Writing library : libebml v1.3.5 + libmatroska v1.4.8

Video
ID : 1
Format : AVC
Format/Info : Advanced Video Codec
Format profile : [email protected]
Format settings, CABAC : Yes
Format settings, ReFrames : 4 frames
Codec ID : V_MPEG4/ISO/AVC
Duration : 1h 35mn
Bit rate : 2 899 Kbps
Width : 1 280 pixels
Height : 528 pixels
Display aspect ratio : 2.40:1
Frame rate mode : Constant
Frame rate : 24.000 fps
Color space : YUV
Chroma subsampling : 4:2:0
Bit depth : 8 bits
Scan type : Progressive
Bits/(Pixel*Frame) : 0.179
Stream size : 1.93 GiB (87%)
Language : English
Default : Yes
Forced : No
Color range : Limited
Color primaries : BT.601 NTSC
Transfer characteristics : BT.601
Matrix coefficients : BT.601

Audio
ID : 2
Format : AC-3
Format/Info : Audio Coding 3
Mode extension : CM (complete main)
Format settings, Endianness : Big
Codec ID : A_AC3
Duration : 1h 35mn
Bit rate mode : Constant
Bit rate : 384 Kbps
Channel(s) : 6 channels
Channel positions : Front: L C R, Side: L R, LFE
Sampling rate : 48.0 KHz
Frame rate : 31.250 fps (1536 spf)
Compression mode : Lossy
Stream size : 261 MiB (11%)
Language : Russian
Default : Yes
Forced : No
Релиз от: HiWay Grope
Источник http://blator.org

Трекер:  [ 13-Июн-2018 20:50 ]

  

Скачать .torrent

Размер .torrent файла 11 KB


Размер: 2.22 GB
Хэш (hash) релиза: ed81aebc57dcdd968027b3a58b9f3391b4325219
Подписка на обновления:

Торренты, похожие на 2036, происхождение неизвестно 2036 Origin Unknown скачать торрент

Форум Название Автор Размер S L Добавлен
Зарубежные фильмы 2016-2018 (Новинки зарубежного кино) ·%· 2036, происхождение неизвестно / 2036 Origin Unknown (2018) WEB-DLRip-AVC от OlLanDGroup | HDRezka Studio Galfimbul 15657327371.46 GB 3 0 1530026437

18:20

26-Июн-18

Зарубежные фильмы 2016-2018 (Новинки зарубежного кино) ·· 2036, происхождение неизвестно / 2036 Origin Unknown (2018) WEB-DLRip-AVC | HDRezka Studio Galfimbul 778335227742 MB 0 0 1529244019

17:00

17-Июн-18

Зарубежные фильмы 2016-2018 (Новинки зарубежного кино) ·· 2036, происхождение неизвестно / 2036 Origin Unknown (2018) WEB-DLRip от MegaPeer | HDRezka Studio Galfimbul 15715020801.46 GB 4 0 1529239899

15:51

17-Июн-18

Зарубежные фильмы 2016-2018 (Новинки зарубежного кино) ·· 2036, происхождение неизвестно / 2036 Origin Unknown (2018) WEB-DL 1080p от ExKinoRay | HDRezka Studio Galfimbul 47257765844.4 GB 2 0 1529235007

14:30

17-Июн-18

Зарубежные фильмы 2016-2018 (Новинки зарубежного кино) ·· 2036, происхождение неизвестно / 2036 Origin Unknown (2018) WEB-DLRip-AVC | L2 Galfimbul 779938729744 MB 0 0 1529071810

17:10

15-Июн-18

Зарубежные фильмы 2016-2018 (Новинки зарубежного кино) ·%· 2036, происхождение неизвестно / 2036 Origin Unknown (2018) WEB-DLRip от R.G.Resident | L2 Galfimbul 15675084801.46 GB 2 0 1529005894

22:51

14-Июн-18

Зарубежные фильмы 2016-2018 (Новинки зарубежного кино) ·%· 2036, происхождение неизвестно / 2036 Origin Unknown (2018) WEB-DLRip-AVC от ExKinoRay | L2 Galfimbul 18248188091.7 GB 0 0 1528953753

08:22

14-Июн-18

Еще никто не оставлял запись к записи скачать торрент 2036, происхождение неизвестно 2036 Origin Unknown . Будь первым!

!Обратная связь