Clive Fryde | Watch now | Register a new account

Скачать через торрент Эмма: Любовный Роман в Викторианскую Эпоху бесплатно Аниме Все серии на русском torrent

Статистика раздачи
Размер:  5.06 GB   |    Зарегистрирован:  4 месяца 1 день   |    .torrent скачан:  22 раза   |   
Раздают:  1  
   
загрузка...
 
Автор Сообщение

Galfimbul

avatar Galfimbul



Страна: Япония
Год выпуска: 2007
Жанр: романтика, повседневность
Тип: TV
Продолжительность: 12 эп, ~24 мин. серия
Режиссер: Кобаяси Цунэо
Студия: Asia-Do

Субтитры:
1: полные/надписи
dronlit (перевод)

Озвучка:
1: Anything Group
одноголосая Sad Kit (муж)
Порядок просмотра:
1: Eikoku Koi Monogatari Emma TV 1
2: Eikoku Koi Monogatari Emma TV 2 Special
3: Eikoku Koi Monogatari Emma TV 2 - эта раздача
Информационные ссылки: MAL | World Art | AniDB
Описание: Уильям Джонс – отпрыск богатого, хоть и незнатного семейства – решает навестить свою старую гувернантку. И, несмотря на то, что строгая старая дама и поныне внушает «мастеру» Уильяму священный трепет, его визит оказывается не вовсе неприятным: воображение молодого мистера Джонса неожиданно пленяет горничная по имени Эмма! Это тихая, скромная и отменно благовоспитанная молодая особа... ее так и хочется назвать «леди» – невзирая на то, что Эмма носит наколку и передник, метет полы и подает чай. Разумеется, мистеру Джонсу не пристало проводить время в обществе прислуги, но Эмма так мила, так трогательна и ненавязчива. Лучше пока просто не думать о том, что сказали б об этом знакомстве родственники!..

© Анастасия Розанова (World Art)
Качество: DVDRip
Тип видео: Без хардсаба, Без линковки
Автор рипа: Anon (Source: R2J)
Формат видео: MKV
Главы: присутствуют
Совместимость с бытовыми плеерами: нет
Видео: х264, 8 bit, 1280x720, ~1431 kbps, 23.976 fps
Аудио JAP (1): VORBIS, ~226 kbps, 48.0 kHz, 2 ch (в составе контейнера)
Аудио JAP (2): FLAC, ~585 kbps, 48.0 kHz, 2 ch (внешними файлами)
Аудио RUS (1): AAC, 192 kbps, 48.0 kHz, 2 ch (внешними файлами)
Субтитры RUS (1): ASS (внешними файлами)
<div class="sp-wrap">
<div class="sp-head folded">Media Info</div>
<div class="sp-body">

GeneralUnique ID : 277568830814353057239752494353234169380 (0xD0D1CFF2329443F0D73475B8A4FE8E24)Complete name : E:\Раздачи\Eikoku Koi Monogatari Emma TV 2\[14] Emma TV 2 01 серия.mkvFormat : MatroskaFormat version : Version 4 / Version 2File size : 287 MiBDuration : 24 min 11 sOverall bit rate mode : VariableOverall bit rate : 1 659 kb/sMovie name : Emma TV 2 01 серияEncoded date : UTC 2018-06-09 09:41:03Writing application : mkvmerge v23.0.0 ('The Bride Said No') 64-bitWriting library : libebml v1.3.6 + libmatroska v1.4.9

VideoID : 1Format : AVCFormat/Info : Advanced Video CodecFormat profile : [email protected] settings, CABAC : YesFormat settings, RefFrames : 5 framesCodec ID : V_MPEG4/ISO/AVCDuration : 24 min 11 sBit rate : 1 370 kb/sWidth : 1 280 pixelsHeight : 720 pixelsDisplay aspect ratio : 16:9Frame rate mode : ConstantFrame rate : 23.976 (24000/1001) FPSColor space : YUVChroma subsampling : 4:2:0Bit depth : 8 bitsScan type : ProgressiveBits/(Pixel*Frame) : 0.062Stream size : 237 MiB (83%)Title : [R2J]Writing library : x264 core 133 r2334 a3ac64bEncoding settings : cabac=1 / ref=5 / deblock=1:-1:-1 / analyse=0x3:0x113 / me=umh / subme=11 / psy=1 / psy_rd=0.90:0.00 / mixed_ref=1 / me_range=32 / chroma_me=1 / trellis=2 / 8x8dct=1 / cqm=0 / deadzone=21,11 / fast_pskip=0 / chroma_qp_offset=-2 / threads=12 / lookahead_threads=1 / sliced_threads=0 / nr=0 / decimate=1 / interlaced=0 / bluray_compat=0 / constrained_intra=0 / bframes=3 / b_pyramid=0 / b_adapt=2 / b_bias=0 / direct=3 / weightb=1 / open_gop=0 / weightp=2 / keyint=240 / keyint_min=23 / scenecut=40 / intra_refresh=0 / rc_lookahead=50 / rc=crf / mbtree=1 / crf=16.5 / qcomp=0.70 / qpmin=10 / qpmax=51 / qpstep=4 / vbv_maxrate=62500 / vbv_bufsize=78125 / crf_max=0.0 / nal_hrd=none / ip_ratio=1.40 / aq=1:1.10Language : JapaneseDefault : YesForced : NoColor range : LimitedColor primaries : BT.601 PALTransfer characteristics : BT.470 System B, BT.470 System GMatrix coefficients : BT.601

AudioID : 2Format : VorbisFormat settings, Floor : 1Codec ID : A_VORBISDuration : 24 min 11 sBit rate mode : VariableBit rate : 256 kb/sChannel(s) : 2 channelsSampling rate : 48.0 kHzCompression mode : LossyStream size : 44.3 MiB (15%)Title : [Original]Writing library : libVorbis (??] (20150105 (??])Language : JapaneseDefault : YesForced : No

Menu00:00:00.000 : ru:Часть А00:01:35.053 : ru:Часть Б00:10:50.108 : ru:Часть В00:22:26.053 : ru:Эндинг00:23:56.018 : ru:Далее
File: E:\Раздачи\Eikoku Koi Monogatari Emma TV 2\[14] Emma TV 2 01 серия.mkv Duration: 00:24:12 (1451.95) Track #1: video ([R2J]) lang: jpn (2) codc: V_MPEG4/ISO/AVC -> H264/AVC (22) reso: 1280x720 -> 16:9 fram: 23.976 fps rate: 1431 kbps (1430.96) dura: 00:24:12 (1451.91) size: 247.67 MB (259703762) Track #2: audio ([Original]) lang: jpn -> Japanese (2) codc: A_VORBIS -> Ogg Vorbis (8) chan: 2 -> Stereo samp: 48000 Hz rate: 226 kbps (225.74) dura: 00:24:12 (1451.76) size: 39.07 MB (40964286) Sizes: (check sanity) disk: 287.11 MB (301055178) trac: 286.74 MB (300668048) [based on track size] bitr: 286.74 MB (300672274) [based on bitrate] tdif: 378.06 KB (387130) 0.12% bdif: 373.93 KB (382903) 0.12%
</div>
</div>
01. Новый дом
02. Лунный свет
03. Прохладный дождь
04. Ухаживание
05. Объятия
06. Успех и поражение
07. Вечерные волны
08. Твой дом
09. Решение
10. У окна
11. Время
12. Цветок
...746099
- наличие озвучки

...2919861
- наличие субтитров

В данном релизе озвучка и субтитры выложены внешними файлами.
Для просмотра на ПК

с озвучкой: переместите mka файлы из папки "Rus Sound -> [Команда/ники дабберов]" и ass файлы из папки "Rus Subs ->[Команда/ники сабберов] Надписи" (по желанию) в папку с видео.
с субтитрами: переместите ass файлы из папки "Rus Subs -> [Команда/ники сабберов] Полные" в папку с видео.

90% современных плееров подключат дорожки автоматически. Так же рекомендуется указать rus и(ли) ru, как язык по умолчанию для выбора дорожек, в настройках вашего плеера и(ли) рендера. Подробнее о настройке плеера можно прочитать тут.
Если релиз содержит 10 битное видео, и у вас проблемы с качеством картинки, инструкцию по просмотру можно найти тут.
Все видео файлы в моих релизах пересобираются. Вы не сможете раздавать их на других раздачах.
Если в релизе есть раздел "Порядок просмотра":

Скачайте все части тайтла.
Поместите все раздачи (видео и необходимые дорожки) в одну папку.
Все сезоны и серии будут в необходимом порядке для просмотра.


Трекер:  [ 13-Июн-2018 20:30 ]

  

Скачать .torrent

Размер .torrent файла 35 KB


Размер: 5.06 GB
Хэш (hash) релиза: 925b719daf3b40d98df2aa3773954a975a69b77c
Подписка на обновления:

Еще никто не оставлял запись к записи скачать торрент Эмма: Любовный Роман в Викторианскую Эпоху . Будь первым!

!Обратная связь