Instrumental | Flamenco | Easy listening

Скачать через торрент Секс ковбои Sex Cowboys Фильм бесплатно в хорошем качестве torrent

Скачивайте на UnionPeer.org фильмы через торрент без регистрации. Новинки кино в хорошем качестве через торрент. На UnionPeer.org можно скачать через торрент фильмы 2014 и 2015 годов. Самые новые фильмы.

Скачать торрент Секс ковбои Sex Cowboys бесплатно через .torrent фильм мультфильм сериал

Статистика раздачи
Размер:  1.38 GB   |    Зарегистрирован:  8 дней   |    .torrent скачан:  106 раз   |   
Раздают:  1  
   
загрузка...
 
Автор Сообщение

Galfimbul

avatar Galfimbul


Секс ковбои / Sex Cowboys
Страна: Италия
Жанр: Драма
Год выпуска: 2017
Продолжительность: 01:10:10

Перевод: Одноголосый закадровый datynet; перевод: Куценко
Субтитры: нет
Оригинальная аудиодорожка: нет

Режиссер: Адриано Джотти / Adriano Giotti

В ролях: Нэтали Бэкс, Франческо Маччаринелли, Федерико Розати.

Описание: Марла и Симон безумно влюблены и у них очень страстные отношения. Но им также с трудом удается сводить концы с концами, и они не в состоянии оплатить арендную плату. В отчаянии они принимают решения снять порно видео.

Доп. информация:

Сэмпл: http://multi-up.com/1201373

Качество видео: DVDRip
Формат видео: AVI

Видео: 720x304 (2.37:1), 25 fps, XviD MPEG-4 ~2603 kbps avg, 0.48 bit/pixel
Аудио: 48 kHz, MPEG Layer 3, 2 ch, ~192.00 kbps avg
Format : AVIFormat/Info : Audio Video InterleaveFile size : 1.38 GiBDuration : 1 h 10 minOverall bit rate : 2 806 kb/sWriting library : VirtualDub build 35491/release

VideoID : 0Format : MPEG-4 VisualFormat profile : Advanced [email protected] settings, BVOP : 2Format settings, QPel : NoFormat settings, GMC : No warppointsFormat settings, Matrix : Default (H.263)Codec ID : XVIDCodec ID/Hint : XviDDuration : 1 h 10 minBit rate : 2 604 kb/sWidth : 720 pixelsHeight : 304 pixelsDisplay aspect ratio : 2.35:1Frame rate : 25.000 FPSColor space : YUVChroma subsampling : 4:2:0Bit depth : 8 bitsScan type : ProgressiveCompression mode : LossyBits/(Pixel*Frame) : 0.476Stream size : 1.28 GiB (93%)Writing library : XviD 64

AudioID : 1Format : MPEG AudioFormat version : Version 1Format profile : Layer 3Codec ID : 55Codec ID/Hint : MP3Duration : 1 h 10 minBit rate mode : ConstantBit rate : 192 kb/sChannel(s) : 2 channelsSampling rate : 48.0 kHzCompression mode : LossyStream size : 96.4 MiB (7%)Alignment : Aligned on interleavesInterleave, duration : 40 ms (1.00 video frame)Interleave, preload duratio : 504 ms


Трекер:  [ 13-Июн-2018 16:30 ]

  

Скачать .torrent

Размер .torrent файла 14 KB


Размер: 1.38 GB
Хэш (hash) релиза: 259c6ec203e54e0511ed2401b04cdf39b0b16c76
Подписка на обновления:

Торренты, похожие на Секс ковбои Sex Cowboys скачать торрент

Форум Название Автор Размер S L Добавлен
Зарубежные фильмы 2016-2018 (Новинки зарубежного кино) ·· Секс ковбои / Sex Cowboys (Адриано Джотти / Adriano Giotti) [2017, Драма, DVDRip] Galfimbul 739974696706 MB 0 0 1528284017

14:20

6-Июн-18

Еще никто не оставлял запись к записи скачать торрент Секс ковбои Sex Cowboys . Будь первым!

!Обратная связь