Bernard M. Baruch | 211 (2018) Hindi Dubbed ENG Full Movei 300MB DVDRip 480p | Jack Lambert

Скачать через торрент Бэтмен-ниндзя Batman Ninja бесплатно Аниме Все серии на русском torrent

Статистика раздачи
Размер:  2.83 GB   |    Зарегистрирован:  5 дней   |    .torrent скачан:  31 раз   |   
Раздают:  1  
   
загрузка...
 
Автор Сообщение

Galfimbul

avatar Galfimbul


Бэтмен-ниндзя
Страна:
Год выпуска: 2018
Жанр: экшн, боевые искусства, самураи, приключения
Тип: Movie
Продолжительность: 85 мин.
Режиссер: Мидзусаки Дзюнпэй
Студия:


Многоголосая авторская озвучка от:
Yu, Leonhart, Chirick, Daniel, Derenn (муж.)
VereneyR, Nari, Murrzik (жен.)

Описание: Горилла Гродд, заклятый противник Бэтмена, создаёт машину перемещения во времени и с её помощью закидывает Тёмного Рыцаря, включая некоторых его союзников и многих злейших врагов, во времена феодальной Японии. Там его враги принимают на себя роли феодальных вассалов с Джокером во главе угла. Привычные высокотехнологичные гаджеты Бэтмена становятся здесь бесполезны, поэтому ему придётся полагаться лишь на свой ум и союзников, включая Женщину-кошку и увеличившуюся бэт-семью Брюса, чтобы восстановить в этих землях порядок и вернуться в родной современный Готэм.
©Nyase

Информационные ссылки: AniDB || World Art

<div class="post-box-default">
<div class="post-box">Качество: BDRip
Тип релиза: без хардсаба
Формат видео: MKV
Релиз/Автор рипа: Cleo
Совместимость с бытовыми плеерами: Нет
Видео: x265, 10 bit, 1920x1080, 4 Mb/s, 23.976 fps

Аудио:
1: AAC, 251 kbps, 48.0 KHz, stereo
2: AAC, 374 kbps, 48.0 KHz, 5.1
3: AAC, 204 kbps, 48.0 KHz, 5.1

Субтитры:
1: ASS,(надписи);
2: SRT, (полные) [UGN SUBZ Translators];
3: SRT, (полные);

ВСЁ В ОДНОМ MKV КОНТЕЙНЕРЕ</div>
</div>
GeneralUnique ID : 123368303388341005744241374677251491163 (0x5CCFDEF7C8BBAC3AC78420222019855B)Complete name : D:\Раздача\[AniPlague] Бэтмен-ниндзя [x265, Hi10p, 1080p] (1).mkvFormat : MatroskaFormat version : Version 4 / Version 2File size : 2.83 GiBDuration : 1 h 25 minOverall bit rate : 4 749 kb/sMovie name : [AniPlague] Бэтмен-ниндзя [x265, Hi10p, 1080p]Encoded date : UTC 2018-06-13 09:32:24Writing application : mkvmerge v21.0.0 ('Tardigrades Will Inherit The Earth') 64-bitWriting library : libebml v1.3.5 + libmatroska v1.4.8Attachments : v_CCSplashdown_v1.0.ttf / v_DeathRattleBB_v1.0.ttf / v_MechEffects2BB_v1.0.ttf / v_Reggae_v1.0.ttf / v_BucketOBlood_v1.2.ttf

VideoID : 1Format : HEVCFormat/Info : High Efficiency Video CodingFormat profile : Main [email protected]@HighCodec ID : V_MPEGH/ISO/HEVCDuration : 1 h 25 minBit rate : 3 916 kb/sWidth : 1 920 pixelsHeight : 1 080 pixelsDisplay aspect ratio : 16:9Frame rate mode : ConstantFrame rate : 23.976 (24000/1001) FPSColor space : YUVChroma subsampling : 4:2:0Bit depth : 10 bitsBits/(Pixel*Frame) : 0.079Stream size : 2.33 GiB (82%)Title : Бэтмен-ниндзяWriting library : x265 2.5+14-2718cb5dd67f:[Windows][GCC 7.1.0][64 bit] 10bitEncoding settings : cpuid=1173503 / frame-threads=3 / numa-pools=8 / wpp / pmode / no-pme / no-psnr / no-ssim / log-level=2 / input-csp=1 / input-res=1920x1080 / interlace=0 / total-frames=122671 / level-idc=62 / high-tier=1 / uhd-bd=0 / ref=3 / no-allow-non-conformance / no-repeat-headers / annexb / no-aud / no-hrd / info / hash=0 / no-temporal-layers / open-gop / min-keyint=23 / keyint=250 / bframes=4 / b-adapt=2 / b-pyramid / bframe-bias=0 / rc-lookahead=20 / lookahead-slices=6 / scenecut=40 / no-intra-refresh / ctu=64 / min-cu-size=8 / no-rect / no-amp / max-tu-size=32 / tu-inter-depth=1 / tu-intra-depth=1 / limit-tu=0 / rdoq-level=0 / dynamic-rd=0.00 / no-ssim-rd / signhide / no-tskip / nr-intra=0 / nr-inter=0 / no-constrained-intra / strong-intra-smoothing / max-merge=2 / limit-refs=0 / no-limit-modes / me=1 / subme=2 / merange=57 / temporal-mvp / weightp / no-weightb / no-analyze-src-pics / deblock=0:0 / sao / no-sao-non-deblock / rd=3 / no-early-skip / rskip / no-fast-intra / no-tskip-fast / no-cu-lossless / no-b-intra / no-splitrd-skip / rdpenalty=0 / psy-rd=2.00 / psy-rdoq=0.00 / no-rd-refine / analysis-reuse-mode=0 / no-lossless / cbqpoffs=0 / crqpoffs=0 / rc=crf / crf=22.0 / qcomp=0.60 / qpstep=4 / stats-write=0 / stats-read=0 / vbv-maxrate=800000 / vbv-bufsize=800000 / vbv-init=0.9 / crf-max=0.0 / crf-min=0.0 / ipratio=1.40 / pbratio=1.30 / aq-mode=2 / aq-strength=1.00 / cutree / zone-count=0 / no-strict-cbr / qg-size=32 / no-rc-grain / qpmax=69 / qpmin=0 / no-const-vbv / sar=0 / overscan=0 / videoformat=5 / range=0 / colorprim=2 / transfer=2 / colormatrix=2 / chromaloc=0 / display-window=0 / max-cll=0,0 / min-luma=0 / max-luma=1023 / log2-max-poc-lsb=8 / vui-timing-info / vui-hrd-info / slices=1 / opt-qp-pps / opt-ref-list-length-pps / no-multi-pass-opt-rps / scenecut-bias=0.05 / no-opt-cu-delta-qp / no-aq-motion / no-hdr / no-hdr-opt / no-dhdr10-opt / analysis-reuse-level=5 / scale-factor=0 / refine-intra=0 / refine-inter=0 / refine-mv=0 / no-limit-sao / ctu-info=0Language : EnglishDefault : YesForced : Yes

Audio #1ID : 2Format : AACFormat/Info : Advanced Audio CodecFormat profile : LCCodec ID : A_AAC-2Duration : 1 h 25 minBit rate : 251 kb/sChannel(s) : 2 channelsChannel positions : Front: L RSampling rate : 48.0 kHzFrame rate : 46.875 FPS (1024 SPF)Compression mode : LossyStream size : 153 MiB (5%)Title : AniPlagueLanguage : RussianDefault : YesForced : Yes

Audio #2ID : 3Format : AACFormat/Info : Advanced Audio CodecFormat profile : LCCodec ID : A_AAC-2Duration : 1 h 25 minBit rate : 374 kb/sChannel(s) : 6 channelsChannel positions : Front: L C R, Side: L R, LFESampling rate : 48.0 kHzFrame rate : 46.875 FPS (1024 SPF)Compression mode : LossyDelay relative to video : 9 msStream size : 228 MiB (8%)Title : DUB_ENGLanguage : EnglishDefault : NoForced : No

Audio #3ID : 4Format : AACFormat/Info : Advanced Audio CodecFormat profile : HE-AAC / LCFormat settings : ExplicitCodec ID : A_AAC-2Duration : 1 h 25 minBit rate : 204 kb/sChannel(s) : 6 channelsChannel positions : Front: L C R, Side: L R, LFESampling rate : 48.0 kHz / 24.0 kHzFrame rate : 23.438 FPS (1024 SPF)Compression mode : LossyStream size : 124 MiB (4%)Title : OriginalLanguage : JapaneseDefault : NoForced : No

Text #1ID : 5Format : ASSCodec ID : S_TEXT/ASSCodec ID/Info : Advanced Sub Station AlphaDuration : 1 h 20 minBit rate : 5 b/sCount of elements : 33Compression mode : LosslessStream size : 3.49 KiB (0%)Title : ForcedLanguage : RussianDefault : YesForced : Yes

Text #2ID : 6Format : UTF-8Codec ID : S_TEXT/UTF8Codec ID/Info : UTF-8 Plain TextDuration : 1 h 21 minBit rate : 85 b/sCount of elements : 873Stream size : 51.4 KiB (0%)Title : UGN SUBZ TranslatorsLanguage : RussianDefault : NoForced : No

Text #3ID : 7Format : UTF-8Codec ID : S_TEXT/UTF8Codec ID/Info : UTF-8 Plain TextDuration : 1 h 24 minBit rate : 45 b/sCount of elements : 880Stream size : 28.3 KiB (0%)Title : EnglishLanguage : EnglishDefault : NoForced : No

Menu00:00:00.000 : en:00:00:00.00000:08:32.345 : en:00:08:32.34500:22:30.683 : en:00:22:30.68300:31:12.537 : en:00:31:12.53700:42:46.689 : en:00:42:46.68900:51:34.425 : en:00:51:34.42501:01:01.449 : en:01:01:01.44901:12:15.831 : en:01:12:15.83101:20:28.657 : en:01:20:28.657
...5553388 - BDRip, 1080p, наличие озвучки
...5568869 - HEVC, Hi10p


Трекер:  [ 13-Июн-2018 13:30 ]

  

Скачать .torrent

Размер .torrent файла 14 KB


Размер: 2.83 GB
Хэш (hash) релиза: dec2249ef13cb7095d13c5b005706000b6c72096
Подписка на обновления:

Торренты, похожие на Бэтмен-ниндзя Batman Ninja скачать торрент

Форум Название Автор Размер S L Добавлен
Аниме | HD Rips ·· Бэтмен Ниндзя / Batman Ninja / Ninja Battoman [Movie] [Без хардсаба] [ENG, SUB] [2018, Анимация, Экшн, BDRip] [720p] Galfimbul 27999446132.61 GB 0 0 1524681035

21:30

25-Апр-18

Аниме | Rips ·· Бэтмен-ниндзя / Batman Ninja [Movie] [Без хардсаба] [RUS(int), JAP, ENG+SUB(RUS, ENG)] [2018, экшн, боевые искусства, самураи, приключения, BDRip] [1080p] Galfimbul 81322058877.57 GB 0 0 1527775296

17:01

31-Май-18

Еще никто не оставлял запись к записи скачать торрент Бэтмен-ниндзя Batman Ninja . Будь первым!

!Обратная связь