How a Strategic Data Center Helps You Face Future Technology... | SurfProxy1 | Kino Lorber

Скачать через торрент Клуб обманутых жен Серии: 1-4 из 4 Фильм бесплатно в хорошем качестве torrent

Скачивайте на UnionPeer.org фильмы через торрент без регистрации. Новинки кино в хорошем качестве через торрент. На UnionPeer.org можно скачать через торрент фильмы 2014 и 2015 годов. Самые новые фильмы.

Скачать торрент Клуб обманутых жен Серии: 1-4 из 4 бесплатно через .torrent фильм мультфильм сериал

Статистика раздачи
Размер:  5.3 GB   |    Зарегистрирован:  4 месяца 4 дня   |    .torrent скачан:  44 раза   |   
Раздают:  1  
   
загрузка...
 
Автор Сообщение

Galfimbul

avatar Galfimbul


Клуб обманутых жен

Год выпуска: 2018
Производство: Кинокомпания "Русское"
Жанр: мелодрама, детектив
Продолжительность: ~00:45:00 серия
Субтитры: нет

Режиссёр: Елена Яковлева

В ролях: Любава Грешнова, Елена Вожакина, Светлана Колпакова, Роман Полянский, Сергей Рудзевич, Павел Крайнов, Александр Давыдов, Алёна Коломина, Максим Житник, Лиза Измайлова

Описание: Оля, Иза и Даша пережили предательство своих мужей. Личные обстоятельства привели их на тренинг по «преодолению кризиса в личной жизни». Но, поняв, что тренинг им не поможет, они решают взять дело по «спасению утопающих» в собственные руки! Олю, Изу и Дашу ничего не связывало в прошлой жизни. Они понимают, что могут помочь друг другу решить все свои проблемы, не вызвав подозрения у мужей и знакомых. Обманутые жены решают воспользоваться классическим приемом детективного жанра — «убийство по обмену». Операция «Клуб обманутых жен» начинается!..

Реклама: Нет.

Кинопоиск
Все раздачи сериала
Sample

Качество: HDTVRip 720p - Nikolspup
Формат: MKV
Видео кодек: H.264
Аудио кодек: AC3
Видео: MPEG4 AVC Video, H264, 16:9, 1280x720, 25 fps, ~4000 kbps, 0.174 bit/pixel
Аудио: AC3 Dolby Digital, 48 kHz, 2/0 (L,R) ch, 192 kbp
General
Unique ID : 226637575197533681273366330057705399050 (0xAA80CF2BA384C8598ABF3EF85658230A)
Complete name : D:\Klub.obmanutyh.zhen.2018.HDTVRip.(720p).Nikolspup\Klub.obmanutyh.zhen.(01.seriya.iz.02).2018.HDTVRip.(720p).Nikolspup.mkv
Format : Matroska
Format version : Version 4 / Version 2
File size : 2.67 GiB
Duration : 1 h 31 min
Overall bit rate : 4 193 kb/s
Encoded date : UTC 2018-06-13 06:13:51
Writing application : mkvmerge v7.8.0 ('River Man') 32bit built on Mar 27 2015 16:18:02
Writing library : libebml v1.3.1 + libmatroska v1.4.2

Video
ID : 1
Format : AVC
Format/Info : Advanced Video Codec
Format profile : [email protected]
Format settings : CABAC / 9 Ref Frames
Format settings, CABAC : Yes
Format settings, ReFrames : 9 frames
Codec ID : V_MPEG4/ISO/AVC
Duration : 1 h 31 min
Bit rate : 4 000 kb/s
Width : 1 280 pixels
Height : 720 pixels
Display aspect ratio : 16:9
Frame rate mode : Constant
Frame rate : 25.000 FPS
Color space : YUV
Chroma subsampling : 4:2:0
Bit depth : 8 bits
Scan type : Progressive
Bits/(Pixel*Frame) : 0.174
Stream size : 2.55 GiB (95%)
Writing library : x264 core 146 r2538 121396c
Encoding settings : cabac=1 / ref=9 / deblock=1:-2:-1 / analyse=0x3:0x133 / me=umh / subme=9 / psy=1 / psy_rd=1.00:0.20 / mixed_ref=1 / me_range=32 / chroma_me=1 / trellis=2 / 8x8dct=1 / cqm=0 / deadzone=21,11 / fast_pskip=1 / chroma_qp_offset=-3 / threads=16 / lookahead_threads=8 / sliced_threads=0 / nr=0 / decimate=1 / interlaced=0 / bluray_compat=0 / constrained_intra=0 / bframes=11 / b_pyramid=2 / b_adapt=2 / b_bias=0 / direct=1 / weightb=1 / open_gop=0 / weightp=2 / keyint=250 / keyint_min=25 / scenecut=40 / intra_refresh=0 / rc=2pass / mbtree=0 / bitrate=4000 / ratetol=1.0 / qcomp=0.60 / qpmin=0 / qpmax=69 / qpstep=4 / cplxblur=20.0 / qblur=0.5 / ip_ratio=1.40 / pb_ratio=1.30 / aq=3:1.00
Default : No
Forced : No
Color range : Limited
Color primaries : BT.709
Transfer characteristics : BT.709
Matrix coefficients : BT.709

Audio
ID : 2
Format : AC-3
Format/Info : Audio Coding 3
Codec ID : A_AC3
Duration : 1 h 31 min
Bit rate mode : Constant
Bit rate : 192 kb/s
Channel(s) : 2 channels
Channel positions : Front: L R
Sampling rate : 48.0 kHz
Frame rate : 31.250 FPS (1536 SPF)
Bit depth : 16 bits
Compression mode : Lossy
Stream size : 125 MiB (5%)
Language : Russian
Service kind : Complete Main
Default : Yes
Forced : Yes


Трекер:  [ 13-Июн-2018 13:12 ]

  

Скачать .torrent

Размер .torrent файла 27 KB


Размер: 5.3 GB
Хэш (hash) релиза: ee6794fe810eced58620be8765c9e05c2534e8ea
Подписка на обновления:

Торренты, похожие на Клуб обманутых жен Серии: 1-4 из 4 скачать торрент

Форум Название Автор Размер S L Добавлен
Российские сериалы ·%· Клуб обманутых жен / Серии: 1-4 из 4 (Елена Яковлева) [2018, мелодрама, детектив, WEBRip] Galfimbul 29374054402.74 GB 0 0 1528884760

13:12

13-Июн-18

Еще никто не оставлял запись к записи скачать торрент Клуб обманутых жен Серии: 1-4 из 4 . Будь первым!

!Обратная связь