The Phone Call | Photo Sketch | Seven The Days Long Gone v1.2.0 Free Download

Скачать через торрент Клуб обманутых жен Серии: 1-4 из 4 Фильм бесплатно в хорошем качестве torrent

Скачивайте на UnionPeer.org фильмы через торрент без регистрации. Новинки кино в хорошем качестве через торрент. На UnionPeer.org можно скачать через торрент фильмы 2014 и 2015 годов. Самые новые фильмы.

Скачать торрент Клуб обманутых жен Серии: 1-4 из 4 бесплатно через .torrent фильм мультфильм сериал

Статистика раздачи
Размер:  2.74 GB   |    Зарегистрирован:  4 месяца 6 дней   |    .torrent скачан:  76 раз   |   
Раздают:  1  
   
загрузка...
 
Автор Сообщение

Galfimbul

avatar Galfimbul


Клуб обманутых жен

Год выпуска: 2018
Производство: Кинокомпания "Русское"
Жанр: мелодрама, детектив
Продолжительность: ~00:45:00 серия
Субтитры: нет

Режиссёр: Елена Яковлева

В ролях: Любава Грешнова, Елена Вожакина, Светлана Колпакова, Роман Полянский, Сергей Рудзевич, Павел Крайнов, Александр Давыдов, Алёна Коломина, Максим Житник, Лиза Измайлова

Описание: Оля, Иза и Даша пережили предательство своих мужей. Личные обстоятельства привели их на тренинг по «преодолению кризиса в личной жизни». Но, поняв, что тренинг им не поможет, они решают взять дело по «спасению утопающих» в собственные руки! Олю, Изу и Дашу ничего не связывало в прошлой жизни. Они понимают, что могут помочь друг другу решить все свои проблемы, не вызвав подозрения у мужей и знакомых. Обманутые жены решают воспользоваться классическим приемом детективного жанра — «убийство по обмену». Операция «Клуб обманутых жен» начинается!..

Реклама: Нет.

Кинопоиск
Все раздачи сериала
Sample

Качество: WEBRip - Files-x
Формат: AVI
Видео кодек: XviD
Аудио кодек: AC3
Видео: 720x400 (1.80:1), 25 fps, XviD build 73 ~1950 kbps avg, 0.271 bit/pixel
Аудио: 48.0 kHz, AC3 Dolby Digital, 2/0 (L,R) ch, ~ 192 kbps
General
Complete name : D:\Клуб обманутых жен (2018).WEB-DLRip.Files-x\1.Клуб обманутых жен (2018).WEB-DLRip.Files-x.avi
Format : AVI
Format/Info : Audio Video Interleave
File size : 1.37 GiB
Duration : 1 h 31 min
Overall bit rate : 2 152 kb/s
Writing application : VirtualDubMod 1.5.10.3 | www.virtualdub-fr.org || (build 2550/release)
Writing library : VirtualDubMod build 2550/release

Video
ID : 0
Format : MPEG-4 Visual
Format profile : Advanced [email protected]
Format settings : BVOP1 / Custom Matrix
Format settings, BVOP : 1
Format settings, QPel : No
Format settings, GMC : No warppoints
Format settings, Matrix : Custom
Codec ID : XVID
Codec ID/Hint : XviD
Duration : 1 h 31 min
Bit rate : 1 950 kb/s
Width : 720 pixels
Height : 400 pixels
Display aspect ratio : 16:9
Frame rate : 25.000 FPS
Color space : YUV
Chroma subsampling : 4:2:0
Bit depth : 8 bits
Scan type : Progressive
Compression mode : Lossy
Bits/(Pixel*Frame) : 0.271
Stream size : 1.24 GiB (91%)
Writing library : XviD 73

Audio
ID : 1
Format : AC-3
Format/Info : Audio Coding 3
Codec ID : 2000
Duration : 1 h 31 min
Bit rate mode : Constant
Bit rate : 192 kb/s
Channel(s) : 2 channels
Channel positions : Front: L R
Sampling rate : 48.0 kHz
Frame rate : 31.250 FPS (1536 SPF)
Bit depth : 16 bits
Compression mode : Lossy
Stream size : 125 MiB (9%)
Alignment : Split accross interleaves
Interleave, duration : 40 ms (1.00 video frame)
Interleave, preload duratio : 500 ms
Service kind : Complete Main


Трекер:  [ 13-Июн-2018 13:12 ]

  

Скачать .torrent

Размер .torrent файла 14 KB


Размер: 2.74 GB
Хэш (hash) релиза: 97549a79eb88de243cb90e80a05b242a9a542a68
Подписка на обновления:

Торренты, похожие на Клуб обманутых жен Серии: 1-4 из 4 скачать торрент

Форум Название Автор Размер S L Добавлен
Российские сериалы ·%· Клуб обманутых жен / Серии: 1-4 из 4 (Елена Яковлева) [2018, мелодрама, детектив, HDTVRip 720p] Galfimbul 56960385575.3 GB 0 0 1528884768

13:12

13-Июн-18

Еще никто не оставлял запись к записи скачать торрент Клуб обманутых жен Серии: 1-4 из 4 . Будь первым!

!Обратная связь