Vampire Holmes | MY Métal Bordures Hommes Lunettes de Soleil Marque Lunettes Polarisées Cyclisme Hommes Conception de UV400 Mode Lunettes Pilote Black Conduite Soleil Polarisées pour Lunettes 4gw40xrq | 4x15 Yowamushi Pedal

Скачать через торрент Аншлаг и Компания 2018.06.11 Фильм бесплатно в хорошем качестве torrent

Скачивайте на UnionPeer.org фильмы через торрент без регистрации. Новинки кино в хорошем качестве через торрент. На UnionPeer.org можно скачать через торрент фильмы 2014 и 2015 годов. Самые новые фильмы.

Скачать торрент Аншлаг и Компания 2018.06.11 бесплатно через .torrent фильм мультфильм сериал

Статистика раздачи
Размер:  2.52 GB   |    Зарегистрирован:  3 месяца 12 дней   |    .torrent скачан:  35 раз   |   
Раздают:  1  
   
загрузка...
 
Автор Сообщение

Galfimbul

avatar Galfimbul


Аншлаг и Компания 2018.06.11

Дата/Год выпуска: 2018
Страна: Россия
Жанр: Юмор
Продолжительность: 02:14:09
Перевод: Не требуется
Русские субтитры: нет

Оригинальная аудиодорожка: русский
Телеканал: Россия 1 HD
Описание: Уже с 1995 года "аншлаговцы" – привычная компания для телезрителей в Старый Новый год. Сегодня с лучшими номерами выступят постоянные участники и гости "Аншлага". Специально для этой программы ими были подготовлены новые номера. В программе участвуют: Владимир Винокур и театр пародии, Клара Новикова, Борис Моисеев, Сергей Дроботенко, Елена Воробей, Геннадий Ветров, Светлана Рожкова, Игорь Маменко, Николай Лукинский, Олег Акулич, Святослав Ещенко, группа "НЕКСТ-ББ" и др. Программу ведут: участницы театра-студии "Непоседы" и постоянная ведущая телепередачи "Аншлаг" Регина Дубовицкая.

качество: HDTVRip720p
формат: mkv
Видео: H264; 1280x720 (16:9); 25.000 fps; ~2 500 kb/s
Аудио: AC3, 48000Hz, 2 channels 192 Кбит/сек
GeneralUnique ID : 233692690990700178085133301676504776344 (0xAFCF933C22A4C8FF972075AC6F7BFE98)Complete name : L:\720\Аншлаг и Компания 2018.06.11.mkvFormat : MatroskaFormat version : Version 2File size : 2.52 GiBDuration : 2 h 14 minOverall bit rate : 2 694 kb/sEncoded date : UTC 2018-06-13 03:08:24Writing application : mkvmerge v7.8.0 ('River Man') 32bit built on Apr 3 2015 12:11:22Writing library : libebml v1.3.1 + libmatroska v1.4.2

VideoID : 1Format : AVCFormat/Info : Advanced Video CodecFormat profile : [email protected] settings : CABAC / 4 Ref FramesFormat settings, CABAC : YesFormat settings, RefFrames : 4 framesCodec ID : V_MPEG4/ISO/AVCDuration : 2 h 14 minBit rate : 2 500 kb/sWidth : 1 280 pixelsHeight : 720 pixelsDisplay aspect ratio : 16:9Frame rate mode : ConstantFrame rate : 25.000 FPSColor space : YUVChroma subsampling : 4:2:0Bit depth : 8 bitsScan type : ProgressiveBits/(Pixel*Frame) : 0.109Stream size : 2.29 GiB (91%)Writing library : x264 core 146 r2538 121396cEncoding settings : cabac=1 / ref=3 / deblock=1:-1:-1 / analyse=0x3:0x113 / me=umh / subme=9 / psy=1 / psy_rd=1.00:0.15 / mixed_ref=1 / me_range=32 / chroma_me=1 / trellis=1 / 8x8dct=1 / cqm=0 / deadzone=21,11 / fast_pskip=1 / chroma_qp_offset=-3 / threads=6 / lookahead_threads=1 / sliced_threads=0 / nr=0 / decimate=1 / interlaced=0 / bluray_compat=0 / constrained_intra=0 / bframes=6 / b_pyramid=2 / b_adapt=1 / b_bias=0 / direct=3 / weightb=1 / open_gop=0 / weightp=2 / keyint=250 / keyint_min=25 / scenecut=40 / intra_refresh=0 / rc_lookahead=40 / rc=2pass / mbtree=1 / bitrate=2500 / ratetol=1.0 / qcomp=0.60 / qpmin=0 / qpmax=69 / qpstep=4 / cplxblur=20.0 / qblur=0.5 / ip_ratio=1.40 / aq=1:1.00Default : YesForced : No

AudioID : 2Format : AC-3Format/Info : Audio Coding 3Format settings, Endianness : BigCodec ID : A_AC3Duration : 2 h 14 minBit rate mode : ConstantBit rate : 192 kb/sChannel(s) : 2 channelsChannel positions : Front: L RSampling rate : 48.0 kHzFrame rate : 31.250 FPS (1536 SPF)Bit depth : 16 bitsCompression mode : LossyStream size : 184 MiB (7%)Service kind : Complete MainDefault : YesForced : No
2


Трекер:  [ 13-Июн-2018 09:42 ]

  

Скачать .torrent

Размер .torrent файла 13 KB


Размер: 2.52 GB
Хэш (hash) релиза: b6ccdb3541ab364e93aa2ab01cb8d188b8f5a0df
Подписка на обновления:

Торренты, похожие на Аншлаг и Компания 2018.06.11 скачать торрент

Форум Название Автор Размер S L Добавлен
Развлекательные телепередачи и шоу ·· Аншлаг и Компания 2018.06.11 [2018, Юмор, HDTV 1080i] Galfimbul 1134490098410.57 GB 0 0 1528764132

03:42

12-Июн-18

Еще никто не оставлял запись к записи скачать торрент Аншлаг и Компания 2018.06.11 . Будь первым!

!Обратная связь