Khamooshi | End Game | KatmovieHD Net House of Cards S05 Complete Hindi 720p HEVC NF WebRip Dual Audio x265

Скачать через торрент Британия Полна Талантов Britainss Got Talent Фильм бесплатно в хорошем качестве torrent

Скачивайте на UnionPeer.org фильмы через торрент без регистрации. Новинки кино в хорошем качестве через торрент. На UnionPeer.org можно скачать через торрент фильмы 2014 и 2015 годов. Самые новые фильмы.

Скачать торрент Британия Полна Талантов Britainss Got Talent бесплатно через .torrent фильм мультфильм сериал

Статистика раздачи
Размер:  29.48 GB   |    Зарегистрирован:  3 месяца 11 дней   |    .torrent скачан:  29 раз   |   
Раздают:  1  
   
загрузка...
 
Автор Сообщение

Galfimbul

avatar Galfimbul


Британия Полна Талантов / Britain's Got Talent

Дата/Год выпуска: 2018
Страна: Великобритания
Жанр: Телешоу
Продолжительность: от 25 до 120 минут
Перевод: Не требуется
Русские субтитры: нет

Оригинальная аудиодорожка: английский
Режиссер: Саймон Коуэлл (Simon Cowell)

Телеканал: ITV
Описание: Британская версия шоу талантов, сезон 12.

Участники со всех уголков мира, подозревающие у себя наличие какого-либо таланта, выступают перед публикой и судьями на отборочных турах. Лучшие из них получают возможность участия в полуфиналах, проходящих в прямом эфире, в которых победителей выбирают зрители. Главный приз - 250 тысяч фунтов и возможность выступить в ежегодном Royal Variety Performance - шоу, проходящем при участии королевской семьи.

Доп. информация:
Судьи: Саймон Коуэлл (Simon Cowell), Ама́нда Хо́лден (Amanda Holden), Алиша Диксон (Alesha Dixon), Дэвид Уолльямс (David Walliams)
Ведущие: Энтони «Ant» Макпартлин (Anthony McPartlin) и Деклан «Dec» Доннелли (Declan Donnelly)

Качество: HDTVRip-AVC 720p
Формат: MKV
Видео: MPEG4 Video (H264) 1280x720 50fps
Аудио: Dolby AC3 48000Hz stereo 192kbps

Сэмпл: Яндекс.Диск
Audition Show 1
Audition Show 2
Audition Show 3
Audition Show 4
Audition Show 5
Audition Show 6
Audition Show 7
Live 1
Result Show 1
Live 2
Result Show 2
Live 3
Result Show 3
Live 4
Result Show 4
Live 5
Result Show 5
Final
GeneralComplete name : D:\TV\Britain's Got Talent 2018\Britains.Got.Talent.S12E01.720p.HDTV.x264-FTP.mkvFormat : MatroskaFormat version : Version 2File size : 1.75 GiBDuration : 1 h 3 minOverall bit rate : 3 911 kb/sWriting application : x264.exeWriting library : mkv2rls x264-tv version built on 2016.10.12

VideoID : 1Format : AVCFormat/Info : Advanced Video CodecFormat profile : [email protected] settings : CABAC / 5 Ref FramesFormat settings, CABAC : YesFormat settings, ReFrames : 5 framesCodec ID : V_MPEG4/ISO/AVCDuration : 1 h 3 minBit rate : 3 641 kb/sWidth : 1 280 pixelsHeight : 720 pixelsDisplay aspect ratio : 16:9Frame rate mode : ConstantFrame rate : 50.000 FPSColor space : YUVChroma subsampling : 4:2:0Bit depth : 8 bitsScan type : ProgressiveBits/(Pixel*Frame) : 0.079Stream size : 1.63 GiB (93%)Writing library : x264 core 155 r2901 7d0ff22Encoding settings : cabac=1 / ref=5 / deblock=1:0:0 / analyse=0x3:0x113 / me=hex / subme=8 / psy=1 / psy_rd=1.00:0.00 / mixed_ref=1 / me_range=16 / chroma_me=1 / trellis=2 / 8x8dct=1 / cqm=0 / deadzone=21,11 / fast_pskip=1 / chroma_qp_offset=-2 / threads=18 / lookahead_threads=3 / sliced_threads=0 / nr=0 / decimate=1 / interlaced=0 / bluray_compat=0 / constrained_intra=0 / bframes=3 / b_pyramid=2 / b_adapt=1 / b_bias=0 / direct=3 / weightb=1 / open_gop=0 / weightp=2 / keyint=250 / keyint_min=25 / scenecut=40 / intra_refresh=0 / rc_lookahead=50 / rc=crf / mbtree=1 / crf=20.0 / qcomp=0.60 / qpmin=0 / qpmax=69 / qpstep=4 / ip_ratio=1.40 / aq=1:1.00Language : EnglishDefault : YesForced : No

AudioID : 2Format : AC-3Format/Info : Audio Coding 3Codec ID : A_AC3Duration : 1 h 3 minBit rate mode : ConstantBit rate : 192 kb/sChannel(s) : 6 channelsChannel(s)_Original : 2 channelsChannel positions : Front: L RSampling rate : 48.0 kHzFrame rate : 31.250 FPS (1536 SPF)Bit depth : 16 bitsCompression mode : LossyStream size : 87.9 MiB (5%)Language : EnglishService kind : Complete MainDefault : YesForced : No
Britain's Got Talent

Сезон 1. 2007 год.
Сезон 2. 2008 год.
Сезон 3. 2009 год.
Сезон 8. 2014 год.
Сезон 9. 2015 год.
Сезон 10. 2016 год.
Сезон 11. 2017 год.

America's Got Talent

Сезон 1. 2006 год.
Сезон 2. 2007 год.
Сезон 3. 2008 год.
Сезон 4. 2009 год.
Сезон 5. 2010 год.
Сезон 8. 2013 год.
Сезон 9. 2014 год.
Сезон 10. 2015 год.
Сезон 11. 2016 год.
Сезон 12. 2017 год.
Сезон 13. 2018 год.

Holland's Got Talent

Сезон 8. 2016 год.

Україна має талант

Сезон 1. 2009 год. [2]
Сезон 2. 2010 год. [2]
Сезон 3. 2011 год. [2], [3]
Сезон 4. 2012 год.
Сезон 5. 2013 год.
Сезон 6. 2014 год.
Сезон 7. 2015 год.

Минута славы

Сезон 3. 2008 год.
Сезон 4. 2009 год.
Сезон 5. 2010 год.
Сезон 8. 2013 год.
Релиз:

Трекер:  [ 13-Июн-2018 08:42 ]

  

Скачать .torrent

Размер .torrent файла 149 KB


Размер: 29.48 GB
Хэш (hash) релиза: 9d2b13b251fcc7d36b1acd6645a64dfc53c4ef3d
Подписка на обновления:

Еще никто не оставлял запись к записи скачать торрент Британия Полна Талантов Britainss Got Talent . Будь первым!

!Обратная связь