Dark Angels | The Incredibles 2 (2018) HDCAM XViD AC3-ETRG | Charlize Theron

Скачать через торрент Знакомство Серии: 1-2 из 2 Фильм бесплатно в хорошем качестве torrent

Скачивайте на UnionPeer.org фильмы через торрент без регистрации. Новинки кино в хорошем качестве через торрент. На UnionPeer.org можно скачать через торрент фильмы 2014 и 2015 годов. Самые новые фильмы.

Скачать торрент Знакомство Серии: 1-2 из 2 бесплатно через .torrent фильм мультфильм сериал

Статистика раздачи
Размер:  3.97 GB   |    Зарегистрирован:  2 месяца 2 дня   |    .torrent скачан:  68 раз   |   
Раздают:  2  
   
загрузка...
 
Автор Сообщение

Galfimbul

avatar Galfimbul


Знакомство

Год выпуска: 2017
Производство: Мотор фильм студия
Жанр: детектив, триллер
Продолжительность: ~00:46:00 серия
Субтитры: нет

Режиссёр: Илья Максимов

В ролях: Павел Баршак, Сергей Маковецкий, Агния Кузнецова, Владимир Епифанцев, Яна Середа, Евгений Буслаков, Екатерина Вуличенко, Дмитрий Ермак
Описание: Коля — молодой эгоист, который уже год как бросил работу, чтобы «найти себя», но вместо реального поиска он погружен в виртуальное общение в социальных сетях. Единственный человек, с которым Коля реально, а не виртуально общается и которому доверяет — его старший брат — художник, любимчик отца и любимец женщин. Но в одно ничем не примечательное утро Коля находит брата мёртвым. Полиция считает, что это самоубийство. Отец, находящийся с Колей не в лучших отношениях, уверен, что сына убили.
Несмотря на сложные отношения с отцом и оторванность от реального мира, Коля решает начать собственное расследование и во чтобы то ни стало найти истинного убийцу брата..

Реклама: Нет.

Кинопоиск

Sample

Качество: WEBRip 1080p - Nikolspup
Формат: MKV
Видео кодек: H.264
Аудио кодек: AC3
Видео: MPEG4 AVC Video, H264, 16:9, 1920x1080, 25 fps, ~6000 kbps, 0.116 bit/pixel
Аудио: AC3 Dolby Digital, 48.0 kHz, 2/0 (L,R) ch, 192 kbps
General
Unique ID : 205231233810675574925511008889267699432 (0x9A66190E22E04428ACAF67FD6BF23EE8)
Complete name : D:\Znakomstvo.2017.WEB-DL.(1080p).Niukolspup\Znakomstvo.(01.seriya.iz.02).2017.WEB-DL.(1080p).Niukolspup.mkv
Format : Matroska
Format version : Version 4 / Version 2
File size : 1.97 GiB
Duration : 46 min 0 s
Overall bit rate mode : Constant
Overall bit rate : 6 146 kb/s
Encoded date : UTC 2018-06-12 20:30:08
Writing application : mkvmerge v7.8.0 ('River Man') 32bit built on Mar 27 2015 16:18:02
Writing library : libebml v1.3.1 + libmatroska v1.4.2

Video
ID : 1
Format : AVC
Format/Info : Advanced Video Codec
Format profile : [email protected]
Format settings : 2 Ref Frames
Format settings, CABAC : No
Format settings, ReFrames : 2 frames
Codec ID : V_MPEG4/ISO/AVC
Duration : 45 min 59 s
Bit rate mode : Constant
Bit rate : 6 000 kb/s
Width : 1 920 pixels
Height : 1 080 pixels
Display aspect ratio : 16:9
Frame rate mode : Constant
Frame rate : 25.000 FPS
Standard : PAL
Color space : YUV
Chroma subsampling : 4:2:0
Bit depth : 8 bits
Scan type : Progressive
Bits/(Pixel*Frame) : 0.116
Stream size : 1.91 GiB (97%)
Default : Yes
Forced : No
Color range : Limited
Color primaries : BT.709
Transfer characteristics : BT.709
Matrix coefficients : BT.709

Audio
ID : 2
Format : AC-3
Format/Info : Audio Coding 3
Codec ID : A_AC3
Duration : 46 min 0 s
Bit rate mode : Constant
Bit rate : 192 kb/s
Channel(s) : 2 channels
Channel positions : Front: L R
Sampling rate : 48.0 kHz
Frame rate : 31.250 FPS (1536 SPF)
Bit depth : 16 bits
Compression mode : Lossy
Stream size : 63.2 MiB (3%)
Language : Russian
Service kind : Complete Main
Default : Yes
Forced : No


Трекер:  [ 13-Июн-2018 01:12 ]

  

Скачать .torrent

Размер .torrent файла 20 KB


Размер: 3.97 GB
Хэш (hash) релиза: 5fe57615b6b9c54a811fc67eb3f6c0c2de904317
Подписка на обновления:

Торренты, похожие на Знакомство Серии: 1-2 из 2 скачать торрент

Форум Название Автор Размер S L Добавлен
Российские сериалы ·%· Знакомство / Серии: 1-2 из 2 (Илья Максимов) [2017, детектив, триллер, WEBRip-AVC] Galfimbul 10528577581004 MB 0 0 1528891940

15:12

13-Июн-18

Российские сериалы ·· Знакомство / Серии: 1-2 из 2 (Илья Максимов) [2017, детектив, триллер, WEBRip] Galfimbul 13182853121.23 GB 0 0 1528845147

02:12

13-Июн-18

Российские сериалы ·· Знакомство / Серии: 1-2 из 2 (Илья Максимов) [2017,детектив, триллер, SATRip-AVC] aleksan55 12561581331.17 GB 0 0 1528824491

20:28

12-Июн-18

Еще никто не оставлял запись к записи скачать торрент Знакомство Серии: 1-2 из 2 . Будь первым!

!Обратная связь