Alfred Hitchcock Presents | Game of Thrones Season 1 | detektiv

Скачать через торрент Ликвидация Серии: 1-14 из 14 Фильм бесплатно в хорошем качестве torrent

Скачивайте на UnionPeer.org фильмы через торрент без регистрации. Новинки кино в хорошем качестве через торрент. На UnionPeer.org можно скачать через торрент фильмы 2014 и 2015 годов. Самые новые фильмы.

Скачать торрент Ликвидация Серии: 1-14 из 14 бесплатно через .torrent фильм мультфильм сериал

Статистика раздачи
Размер:  30.93 GB   |    Зарегистрирован:  1 месяц 5 дней   |    .torrent скачан:  36 раз   |   
Раздают:  1  
   
загрузка...
 
Автор Сообщение

Galfimbul

avatar Galfimbul


Ликвидация

Год выпуска: 2007
Производство: Россия
Жанр: детектив, шпионский
Продолжительность: серия ~00:46:00
Субтитры: нет

Режиссёр: Сергей Урсуляк

В ролях: Владимир Машков, Михаил Пореченков, Владимир Меньшов, Сергей Маковецкий, Светлана Крючкова, Юрий Лахин, Александр Сирин, Константин Лавроненко, Константин Желдин, Полина Агуреева и др.

Описание: Лето 1946 года. Маршал Жуков в опале. Он отправлен в ссылку в Одессу, где нет житья от воров, убийц и вымогателей, а дерзкая безжалостная банда «Степные волки» повадилась грабить военные склады. И всем заправляет неуловимый немецкий шпион «Академик», которого никто не знает в лицо. И только начальник угрозыска Давид Гоцман и Георгий Жуков могут спасти город. Они задумывают сложную и опасную операцию…

Реклама: Нет

Сэмпл: Здесь

Качество: WEBRip
Формат: MKV
Видео кодек: H.264
Аудио кодек: AC3
Видео: 1800x1080, 25 fps, 6500 kbps, 0.134 bit/pixel
Аудио: AC3, 48 Hz, 6 ch, 448 kbps
012_Ликвидация_(2007)_х1080.mkv
Format : Matroska
Format version : Version 4 / Version 2
File size : 2.21 GiB
Duration : 45 min 41 s
Overall bit rate : 6 929 kb/s
Encoded date : UTC 2018-06-12 13:30:28
Writing application : mkvmerge v6.9.1 ('Blue Panther') 32bit built on Apr 18 2014 18:15:44
Writing library : libebml v1.3.0 + libmatroska v1.4.1
Attachments : poster.jpg

Video
ID : 1
Format : AVC
Format/Info : Advanced Video Codec
Format profile : [email protected]
Format settings : CABAC / 4 Ref Frames
Format settings, CABAC : Yes
Format settings, ReFrames : 4 frames
Codec ID : V_MPEG4/ISO/AVC
Duration : 45 min 41 s
Bit rate : 6 500 kb/s
Width : 1 800 pixels
Height : 1 080 pixels
Display aspect ratio : 5:3
Frame rate mode : Constant
Frame rate : 25.000 FPS
Color space : YUV
Chroma subsampling : 4:2:0
Bit depth : 8 bits
Scan type : Progressive
Bits/(Pixel*Frame) : 0.134
Stream size : 2.02 GiB (92%)
Writing library : x264 core 155 r2901M 7d0ff22
Encoding settings : cabac=1 / ref=4 / deblock=1:0:0 / analyse=0x3:0x113 / me=umh / subme=10 / psy=1 / psy_rd=1.00:0.00 / mixed_ref=1 / me_range=32 / chroma_me=1 / trellis=2 / 8x8dct=1 / cqm=0 / deadzone=21,11 / fast_pskip=0 / chroma_qp_offset=-2 / threads=9 / lookahead_threads=1 / sliced_threads=0 / nr=0 / decimate=1 / interlaced=0 / bluray_compat=0 / constrained_intra=0 / bframes=8 / b_pyramid=2 / b_adapt=2 / b_bias=0 / direct=3 / weightb=1 / open_gop=0 / weightp=2 / keyint=250 / keyint_min=25 / scenecut=40 / intra_refresh=0 / rc_lookahead=60 / rc=2pass / mbtree=1 / bitrate=6500 / ratetol=1.0 / qcomp=0.70 / qpmin=3 / qpmax=69 / qpstep=4 / cplxblur=20.0 / qblur=0.5 / ip_ratio=1.40 / aq=2:1.00
Default : Yes
Forced : No

Audio
ID : 2
Format : AC-3
Format/Info : Audio Coding 3
Codec ID : A_AC3
Duration : 45 min 41 s
Bit rate mode : Constant
Bit rate : 448 kb/s
Channel(s) : 6 channels
Channel positions : Front: L C R, Side: L R, LFE
Sampling rate : 48.0 kHz
Frame rate : 31.250 FPS (1536 SPF)
Bit depth : 16 bits
Compression mode : Lossy
Stream size : 146 MiB (6%)
Language : Russian
Service kind : Complete Main
Default : Yes
Forced : No
Предыдущие и альтернативные раздачи

Трекер:  [ 12-Июн-2018 20:12 ]

  

Скачать .torrent

Размер .torrent файла 79 KB


Размер: 30.93 GB
Хэш (hash) релиза: 3b70c3476e332a30b27b6a4b92b5a20cb94be9fe
Подписка на обновления:

Торренты, похожие на Ликвидация Серии: 1-14 из 14 скачать торрент

Форум Название Автор Размер S L Добавлен
Российские сериалы ·· Ликвидация / Серии: 1-14 из 14 (Сергей Урсуляк) [2007,детектив, военный , шпионский, DVDRip-AVC] Galfimbul 86537148718.06 GB 0 0 1500420048

02:20

19-Июл-17

Российские сериалы ·· Ликвидация / Серии: 1-14 из 14 (Сергей Урсуляк) [2007, Детектив, драма, боевик, DVDRip - AVC] damien1990 104376129199.72 GB 0 0 1364845122

22:38

1-Апр-13

Российские сериалы ·%· Ликвидация / Сезон: Серии: 1-14 из 14 (Сергей Урсуляк) [2007, детектив, шпионский, WEBRip 720p] Galfimbul 2010368782518.72 GB 0 0 1530862951

10:42

6-Июл-18

Российские сериалы ·· Ликвидация (Сергей Урсуляк, серии 1-14 из 14) [2007 г., боевик, детектив, DVDRip] ИгНат 58809548805.48 GB 0 0 1295952067

13:41

25-Янв-11

Российские сериалы ·%· Ликвидация / Сезон: 1 / Серии: 1-14 из 14 (Сергей Урсуляк) [2007, военный фильм, детектив, исторический фильм, шпионский фильм, HDTVRip] Galfimbul 80881889287.53 GB 0 0 1528989171

18:12

14-Июн-18

Российские сериалы ·· Ликвидация / Сезон: 1 / Серии: 1-14 из 14 (Сергей Урсуляк) [2007, детектив, шпионский, DVDRip] Galfimbul 1522748089014.18 GB 0 0 1510518167

23:22

12-Ноя-17

Российские сериалы ·· Ликвидация / Сезон: 1 / Серии: 1-14 из 14 (Сергей Урсуляк) [2007, Детектив, боевик, Blu-ray disc 1080p] Galfimbul 4914774359745.77 GB 0 0 1490426606

10:23

25-Мар-17

Российские сериалы ·· Ликвидация / Сезон: 1 / Серии: 1-14 из 14 (Сергей Урсуляк) [Россия, детектив, криминал, триллер, Blu-Ray 1080i] Galfimbul 4914774400545.77 GB 0 0 1488558671

19:31

3-Мар-17

Российские сериалы ·· Ликвидация / Сезон: 1 / Серии: 1-14 из 14 (Сергей Урсуляк) [2007, Детектив, боевик, HDTVRip (720p)] Galfimbul 2336199178821.76 GB 0 0 1431794092

19:34

16-Май-15

Российские сериалы ·· Ликвидация / Сезон: 1 / Серии: 1-14 из 14 (Сергей Урсуляк) [2007, Детектив, боевик, HDTVRip-AVC] Galfimbul 1258296662111.72 GB 0 0 1431761879

10:37

16-Май-15

Российские сериалы ·· Ликвидация / Сезон: 1 / Серии: 1-14 из 14 (Сергей Урсуляк) [2007, Детектив, боевик, HDTV 1080i] Galfimbul 4070275632437.91 GB 0 0 1431745448

06:04

16-Май-15

Российские сериалы ·· Ликвидация / Сезон: 1 / Серии: 14 из 14 (Сергей Урсуляк) [2007, Детектив, боевик, HDTVRip] Galfimbul 93520204228.71 GB 2 0 1428093158

23:32

3-Апр-15

Еще никто не оставлял запись к записи скачать торрент Ликвидация Серии: 1-14 из 14 . Будь первым!

!Обратная связь