Board Rules/Guide/Introduction: Find A Thread, Ask Movie Questions! | Season 4 Episode 2 Heavy Lies The Crown | View more »

Скачать через торрент Эмма: Любовный Роман в Викторианскую Эпоху бесплатно Аниме Все серии на русском torrent

Статистика раздачи
Размер:  229 MB   |    Зарегистрирован:  6 дней   |    .torrent скачан:  26 раз   |   
Раздают:  1  
   
загрузка...
 
Автор Сообщение

Galfimbul

avatar Galfimbul



Страна: Япония
Год выпуска: 2007
Жанр: романтика, повседневность
Тип: Special
Продолжительность: 1 эп, ~24 мин.
Режиссер: Кобаяси Цунэо
Студия: Asia-Do

Субтитры:
1: полные/надписи ingen-funsubbs
Nodanoshi (перевод) Xander & Пушистая (редакция) Anything Group (новые вставки)

Озвучка:
1: Anything Group
одноголосая Sad Kit (муж)
Порядок просмотра:
1: Eikoku Koi Monogatari Emma TV 1
2: Eikoku Koi Monogatari Emma TV 2 Special - эта раздача
3: Eikoku Koi Monogatari Emma TV 2
Информационные ссылки: MAL | World Art | AniDB
Описание: Уильям Джонс – отпрыск богатого, хоть и незнатного семейства – решает навестить свою старую гувернантку. И, несмотря на то, что строгая старая дама и поныне внушает «мастеру» Уильяму священный трепет, его визит оказывается не вовсе неприятным: воображение молодого мистера Джонса неожиданно пленяет горничная по имени Эмма! Это тихая, скромная и отменно благовоспитанная молодая особа... ее так и хочется назвать «леди» – невзирая на то, что Эмма носит наколку и передник, метет полы и подает чай. Разумеется, мистеру Джонсу не пристало проводить время в обществе прислуги, но Эмма так мила, так трогательна и ненавязчива. Лучше пока просто не думать о том, что сказали б об этом знакомстве родственники!..

© Анастасия Розанова (World Art)
Качество: DVDRip
Тип видео: Без хардсаба, Без линковки
Автор рипа: georgecauldron [Citadel Of The Raven]
Формат видео: MKV
Главы: присутствуют
Совместимость с бытовыми плеерами: нет
Видео: х264, 8 bit, 720x480 (@853x480), ~946 kbps, 29.970 fps
Аудио JAP: VORBIS, ~191 kbps, 48.0 kHz, 2 ch (в составе контейнера)
Аудио RUS (1): AAC, 192 kbps, 48.0 kHz, 2 ch (внешними файлами)
Субтитры RUS (1): ASS (внешними файлами)
<div class="sp-wrap">
<div class="sp-head folded">Media Info</div>
<div class="sp-body">

GeneralUnique ID : 152859289700567310835183454802369362070 (0x72FFA0DA5067FB846D92271C7F7CB896)Complete name : E:\Раздачи\Eikoku Koi Monogatari Emma TV 2 Special\[13] Emma TV 2 Sp 1 серия.mkvFormat : MatroskaFormat version : Version 4 / Version 2File size : 195 MiBDuration : 23 min 57 sOverall bit rate mode : VariableOverall bit rate : 1 139 kb/sMovie name : Emma TV 2 Sp 1 серияEncoded date : UTC 2018-06-09 11:41:37Writing application : mkvmerge v23.0.0 ('The Bride Said No') 64-bitWriting library : libebml v1.3.6 + libmatroska v1.4.9

VideoID : 1Format : AVCFormat/Info : Advanced Video CodecFormat profile : [email protected] settings, CABAC : YesFormat settings, RefFrames : 2 framesCodec ID : V_MPEG4/ISO/AVCDuration : 23 min 57 sBit rate : 861 kb/sNominal bit rate : 942 kb/sWidth : 720 pixelsHeight : 480 pixelsDisplay aspect ratio : 16:9Original display aspect ratio : 3:2Frame rate mode : ConstantFrame rate : 29.970 (30000/1001) FPSStandard : NTSCColor space : YUVChroma subsampling : 4:2:0Bit depth : 8 bitsScan type : ProgressiveBits/(Pixel*Frame) : 0.083Stream size : 147 MiB (76%)Title : georgecauldron [Citadel Of The Raven]Writing library : x264 core 47 svn-532Encoding settings : cabac=1 / ref=1 / deblock=1:0:0 / analyse=0x1:0x111 / me=hex / subme=5 / brdo=0 / mixed_ref=0 / me_range=16 / chroma_me=1 / trellis=0 / 8x8dct=0 / cqm=0 / chroma_qp_offset=0 / slices=4 / nr=0 / decimate=1 / bframes=2 / b_pyramid=0 / b_adapt=0 / b_bias=0 / direct=1 / wpredb=0 / bime=0 / keyint=250 / keyint_min=25 / scenecut=40 / rc=2pass / bitrate=942 / ratetol=1.0 / rceq='blurCplx^(1-qComp)' / qcomp=0.60 / qpmin=10 / qpmax=51 / qpstep=4 / cplxblur=20.0 / qblur=0.5 / ip_ratio=1.40 / pb_ratio=1.30Language : JapaneseDefault : YesForced : No

AudioID : 2Format : VorbisFormat settings, Floor : 1Codec ID : A_VORBISDuration : 23 min 57 sBit rate mode : VariableBit rate : 256 kb/sChannel(s) : 2 channelsSampling rate : 48.0 kHzCompression mode : LossyStream size : 43.9 MiB (22%)Title : [Original]Writing library : libVorbis (??] (20150105 (??])Language : JapaneseDefault : YesForced : No

Menu00:00:00.000 : ru:Часть А00:00:25.859 : ru:Опенинг00:01:55.882 : ru:Часть Б00:11:50.877 : ru:Часть В00:21:45.871 : ru:Эндинг00:23:15.895 : ru:Часть Г
File: E:\Раздачи\Eikoku Koi Monogatari Emma TV 2 Special\[13] Emma TV 2 Sp 1 серия.mkv Duration: 00:23:58 (1437.81) Track #1: video (georgecauldron [Citadel Of The Raven]) lang: jpn (2) codc: V_MPEG4/ISO/AVC -> H264/AVC (22) reso: 720x480 (853x480) -> Unknown (aka not common) anamorphic fram: 29.97 fps rate: 946 kbps (945.693) dura: 00:23:58 (1437.74) size: 162.08 MB (169957156) Track #2: audio ([Original]) lang: jpn -> Japanese (2) codc: A_VORBIS -> Ogg Vorbis (8) chan: 2 -> Stereo samp: 48000 Hz rate: 191 kbps (191.27) dura: 00:23:58 (1437.79) size: 32.78 MB (34375947) Sizes: (check sanity) disk: 195.26 MB (204746501) trac: 194.87 MB (204333103) [based on track size] bitr: 194.87 MB (204331729) [based on bitrate] tdif: 403.71 KB (413398) 0.20% bdif: 405.05 KB (414771) 0.20%
</div>
</div>
0. Антракт
...2703541
- наличие субтитров

В данном релизе озвучка и субтитры выложены внешними файлами.
Для просмотра на ПК

с озвучкой: переместите mka файлы из папки "Rus Sound -> [Команда/ники дабберов]" и ass файлы из папки "Rus Subs ->[Команда/ники сабберов] Надписи" (по желанию) в папку с видео.
с субтитрами: переместите ass файлы из папки "Rus Subs -> [Команда/ники сабберов] Полные" в папку с видео.

90% современных плееров подключат дорожки автоматически. Так же рекомендуется указать rus и(ли) ru, как язык по умолчанию для выбора дорожек, в настройках вашего плеера и(ли) рендера. Подробнее о настройке плеера можно прочитать тут.
Если релиз содержит 10 битное видео, и у вас проблемы с качеством картинки, инструкцию по просмотру можно найти тут.
Все видео файлы в моих релизах пересобираются. Вы не сможете раздавать их на других раздачах.
Если в релизе есть раздел "Порядок просмотра":

Скачайте все части тайтла.
Поместите все раздачи (видео и необходимые дорожки) в одну папку.
Все сезоны и серии будут в необходимом порядке для просмотра.


Трекер:  [ 11-Июн-2018 18:30 ]

  

Скачать .torrent

Размер .torrent файла 37 KB


Размер: 229 MB
Хэш (hash) релиза: 36e4b34fd603d44754d9ceec790afe774aad6d3f
Подписка на обновления:

Еще никто не оставлял запись к записи скачать торрент Эмма: Любовный Роман в Викторианскую Эпоху . Будь первым!

!Обратная связь