Basketball Wives | Example Literature Reviews | Bizutage mortel

Скачать через торрент Судьба: Ночь схватки. Прикосновение небес. Gekijouban Fate бесплатно Аниме Все серии на русском torrent

Статистика раздачи
Размер:  12.03 GB   |    Зарегистрирован:  4 месяца 3 дня   |    .torrent скачан:  43 раза   |   
Раздают:  1  
   
загрузка...
 
Автор Сообщение

Galfimbul

avatar Galfimbul


Судьба: Ночь схватки. Прикосновение небес. / Gekijouban Fate/Stay Night: Heaven`s Feel / Fate/stay night Movie: Heaven's Feel - I. Presage Flower

Страна: Япония
Год выпуска: 2017
Жанр: приключения, мистика, фэнтези
Тип: Movie
Продолжительность: 3 фильма по 2 ч. 35 сек
Режиссер: Судо Томонори
Студия: ufotable
Описание: Первый фильм третьей аниме-адаптации «Fate/Stay Night».

Война Священного Грааля: жестокая битва между магами, в которой семь мастеров и их призванные слуги сражаются за Святой Грааль, магический артефакт, который может даровать победителю любое желание. Почти 10 лет назад Последняя битва четвертой войны Святого Грааля нанесла ущерб городу Фуюки и унесла более 500 жизней, оставив город опустошенным.
Широ Эмия, переживший эту трагедию, стремится стать героем справедливости, как его спаситель и приемный отец, Кирицугу Эмия. Несмотря на это, только будучи студентом Широ бросается в пятую войну Святого Грааля, когда он случайно видит битву между слугами в школе и призывает своего собственного слугу, Сэйбер.
Когда таинственная тень начинает убийственное веселье в городе Фуюки, Широ присоединяется к Рин Тосаке, соучастнику войны Святого Грааля, чтобы остановить гибель бесчисленного количества людей. Тем не менее, чувства Широ к его близкому другу Сакуре Мато ведут его глубже в темные тайны, окружающие войну и враждующие семьи.

Качество: BDRip
Тип релиза: Без хардсаба
Формат видео: MKV
Наличие линковки: Нет
Релиз/Автор рипа: Jensen [Beatrice-Raws]
Видео: x264, AVC, 1920×1080, 13,2 Мбит/сек, 23,976 кадров/сек, (Hi10P)
Аудио: JAP(int), FLAC, 48.0 kHz, 2.0 ch, 941 Kbps
Субтитры: JAP(int), PGS, официальные субтитры с BDs/HD-DVDs
Субтитры 2: ENG(int), PGS, официальные субтитры с BDs/HD-DVDs
Субтитры 3: RUS(ext), ASS, перевод: Drnndy & Flamme
ОбщееУникальный идентификатор : 202644124809009467077603352592448539116 (0x9873D6BBC0BCA4ACB8C0B80DBB28C9EC)Полное имя : D:\Film\anim\Serial\Unlimited Blade Works [BD] [1080p]\[Beatrice-Raws] Fate stay night Heaven's Feel I - presage flower [BDRip 1920x1080 x264 FLAC]\[Beatrice-Raws] Fate stay night Heaven's Feel I - presage flower [BDRip 1920x1080 x264 FLAC].mkvФормат : MatroskaВерсия формата : Version 4 / Version 2Размер файла : 12,0 ГбайтПродолжительность : 2 ч. 0 м.Режим общего битрейта : ПеременныйОбщий поток : 14,3 Мбит/секДата кодирования : UTC 2018-05-12 22:58:41Программа кодирования : mkvmerge v23.0.0 ('The Bride Said No') 64-bitБиблиотека кодирования : libebml v1.3.6 + libmatroska v1.4.9

ВидеоИдентификатор : 1Формат : AVCФормат/Информация : Advanced Video CodecПрофиль формата : High [email protected]Настройки формата : CABAC / 4 Ref FramesПараметр CABAC формата : ДаПараметр RefFrames формата : 4 кадраИдентификатор кодека : V_MPEG4/ISO/AVCПродолжительность : 2 ч. 0 м.Битрейт : 13,2 Мбит/секШирина : 1920 пикселейВысота : 1080 пикселейСоотношение сторон : 16:9Режим частоты кадров : ПостоянныйЧастота кадров : 23,976 (24000/1001) кадра/секЦветовое пространство : YUVСубдискретизация насыщенности : 4:2:0Битовая глубина : 10 битТип развёртки : ПрогрессивнаяБит/(Пиксели*Кадры) : 0.266Размер потока : 11,1 Гбайт (93%)Заголовок : BDrip by JensenБиблиотека кодирования : x264 core 155 r2901M 7d0ff22 (DJATOM's mod)Настройки программы : cabac=1 / ref=4 / deblock=1:1:-1 / analyse=0x3:0x113 / me=umh / subme=9 / psy=1 / fade_compensate=0.00 / psy_rd=1.00:0.00 / mixed_ref=1 / me_range=32 / chroma_me=1 / trellis=2 / 8x8dct=1 / cqm=0 / deadzone=21,11 / fast_pskip=1 / chroma_qp_offset=-2 / threads=34 / lookahead_threads=5 / sliced_threads=0 / nr=0 / decimate=1 / interlaced=0 / bluray_compat=0 / constrained_intra=0 / bframes=9 / b_pyramid=2 / b_adapt=2 / b_bias=0 / direct=1 / weightb=1 / open_gop=0 / weightp=2 / keyint=240 / keyint_min=23 / scenecut=40 / intra_refresh=0 / rc=crf / mbtree=0 / crf=15.5000 / qcomp=0.72 / qpmin=0 / qpmax=81 / qpstep=4 / ip_ratio=1.40 / pb_ratio=1.30 / aq=1:0.85Язык : JapaneseDefault : ДаForced : НетЦветовой диапазон : LimitedОсновные цвета : BT.709Характеристики трансфера : BT.709Коэффициенты матрицы : BT.709

АудиоИдентификатор : 2Формат : FLACФормат/Информация : Free Lossless Audio CodecИдентификатор кодека : A_FLACПродолжительность : 2 ч. 0 м.Вид битрейта : ПеременныйБитрейт : 941 Кбит/секКаналы : 2 каналаРасположение каналов : Front: L RЧастота : 48,0 КГцЧастота кадров : 11,719 кадров/сек (4096 SPF)Битовая глубина : 24 битРазмер потока : 812 Мбайт (7%)Библиотека кодирования : libFLAC 1.3.2 (UTC 2017-01-01)Язык : JapaneseDefault : ДаForced : Нет

Текст #1Идентификатор : 3Формат : PGSРежим смешивания : zlibИдентификатор кодека : S_HDMV/PGSИдентификатор кодека/Информация : Picture based subtitle format used on BDs/HD-DVDsПродолжительность : 2 ч. 0 м.Битрейт : 138 Кбит/секElementCount : 6017Размер потока : 118 Мбайт (1%)Заголовок : EngЯзык : EnglishDefault : НетForced : Нет

Текст #2Идентификатор : 4Формат : PGSРежим смешивания : zlibИдентификатор кодека : S_HDMV/PGSИдентификатор кодека/Информация : Picture based subtitle format used on BDs/HD-DVDsПродолжительность : 1 ч. 59 м.Битрейт : 171 Кбит/секElementCount : 8502Размер потока : 146 Мбайт (1%)Заголовок : JpnЯзык : JapaneseDefault : НетForced : Нет

Меню00:00:00.000 : en:Avant00:04:19.885 : en:Part A00:09:07.839 : en:Part B00:12:32.126 : en:Part C00:19:47.395 : en:Part D00:26:44.102 : en:Part E00:29:58.005 : en:Part F00:34:50.922 : en:Part G00:40:10.992 : en:Part H00:47:07.575 : en:Part I00:52:19.178 : en:Part J00:59:06.543 : en:Part K01:07:36.886 : en:Part L01:15:41.120 : en:Part M01:20:32.202 : en:Part N01:24:49.418 : en:Part O01:30:56.743 : en:Part P01:38:43.417 : en:Part Q01:44:11.370 : en:Part R01:51:28.473 : en:Part S01:53:39.312 : en:ED01:59:21.154 : en:Next
...5560030 - BD Remux
...5563680 - BDRip 720p

Данная раздача BDRip 1080p


Трекер:  [ 11-Июн-2018 18:30 ]

  

Скачать .torrent

Размер .torrent файла 31 KB


Размер: 12.03 GB
Хэш (hash) релиза: 45515969ebef770ee192137e45cea15cad3c6056
Подписка на обновления:

Еще никто не оставлял запись к записи скачать торрент Судьба: Ночь схватки. Прикосновение небес. Gekijouban Fate . Будь первым!

!Обратная связь