CrossFire: Legends | Anne Hathaway | Thinspiration (2014)

Скачать через торрент Звездные войны: Повстанцы Star Wars: Rebels Фильм бесплатно в хорошем качестве torrent

Скачивайте на UnionPeer.org фильмы через торрент без регистрации. Новинки кино в хорошем качестве через торрент. На UnionPeer.org можно скачать через торрент фильмы 2014 и 2015 годов. Самые новые фильмы.

Скачать торрент Звездные войны: Повстанцы Star Wars: Rebels бесплатно через .torrent фильм мультфильм сериал

Статистика раздачи
Размер:  24.86 GB   |    Зарегистрирован:  4 месяца 6 дней   |    .torrent скачан:  36 раз   |   
Раздают:  1  
   
загрузка...
 
Автор Сообщение

Galfimbul

avatar Galfimbul


Звездные войны: Повстанцы / Star Wars: Rebels

Страна: США
Жанр: Фантастика, мультсериал, приключения
Продолжительность: 15 х ~ 00:22:00
Год выпуска: 2014-2015
Перевод: Профессиональный (дублированный) (Disney / Невафильм)
Русские субтитры: нет

Режиссёр: Стюарт Ли, Дэйв Филони, Стивен Дж. Ли.
Роли озвучивали: Ванесса Маршалл, Фредди Принц мл., Стивен Блум, Тия Сиркар, Тейлор Грэй, Дэвид Ойелоуо, Кит Шарабайка, Лайам О’Брайэн, Грег Уайзман, Грег Эллис

Описание: Анимационный телесериал, действие которого разворачивается в период между фильмами «Звёздные войны. Эпизод III: Месть ситхов» и «Звёздные войны. Эпизод IV: Новая надежда». Сериал будет рассказывать о разномастной группе повстанцев, экипаже космического корабля «Призрак», и их борьбе против Галактической Империи.



Качество: BDRip 720p
Формат: MKV
Видео: MPEG-4 AVC, 1280x720(16:9), 23.976 fps, ~6500 Kbps
Аудио 1: [Русский] AC3, 48 kHz, 2 ch, 192 Kbps - Disney / Невафильм
Аудио 2: [Английский] AC3, 48 kHz, 6 ch, 640 Kbps
Субтитры: Английские (full)

Ссылка на предыдущие и альтернативные раздачи

1 сезон 720р
1 сезон 1080р
2 сезон 720р
[]3 сезон[/url]
Релиз Films.Club - BenderBEST
• Рип от CtrlHD!
• За все замечательные записи с Disney благодарим - Justin
• Работа со звуком - BenderBEST
01. The Siege of Lothal - Part 1
02. The Siege of Lothal - Part 2
03. The Lost Commanders
04. Relics of the Old Republic
05. Always Two There Are
06. Brothers of the Broken Horn
07. Wings of the Master
08. Blood Sisters
09. Stealth Strike
10. The Future of the Force
11. Legacy
12. A Princess on Lothal
13. The Protector of Concord Dawn
14. Legends of the Lasat
15. The Call
16. Homecoming
17. The Honorable Ones
18. Shroud of Darkness
19. The Forgotten Droid
20. The Mystery of Chopper Base
21. Twilight of the Apprentice - Part 1
22. Twilight of the Apprentice - Part 2
ОбщееУникальный идентификатор : 190748297073173844118132693846337765489 (0x8F80C924C6B2D61CBE47AD52FB6FC071)Полное имя : D:\Повстанцы\Star.Wars.Rebels.S01.2014.720p.BDRip_MediaClub\Star.Wars.Rebels.S01.E01.720p.BDRip_MediaClub.mkvФормат : MatroskaВерсия формата : Version 4 / Version 2Размер файла : 1,29 ГбайтПродолжительность : 22 м.Общий поток : 8378 Кбит/секНазвание фильма : ReJIiZ MediaClub & CasStudioДата кодирования : UTC 2016-02-07 19:50:11Программа кодирования : mkvmerge v6.9.1 ('Blue Panther') 32bit built on Apr 18 2014 18:15:44Библиотека кодирования : libebml v1.3.0 + libmatroska v1.4.1

ВидеоИдентификатор : 1Формат : AVCФормат/Информация : Advanced Video CodecПрофиль формата : [email protected]Параметр CABAC формата : ДаПараметр ReFrames формата : 9 кадровИдентификатор кодека : V_MPEG4/ISO/AVCПродолжительность : 22 м.Битрейт : 6500 Кбит/секШирина : 1280 пикселейВысота : 720 пикселейСоотношение сторон : 16:9Режим частоты кадров : ПостоянныйЧастота кадров : 25,000 кадров/секЧастота кадров в оригинале : 23,976 (24000/1001) кадра/секЦветовое пространство : YUVСубдискретизация насыщенности : 4:2:0Битовая глубина : 8 битТип развёртки : ПрогрессивнаяБит/(Пиксели*Кадры) : 0.282Размер потока : 1,02 Гбайт (79%)Библиотека кодирования : x264 core 146 r2538 121396cНастройки программы : cabac=1 / ref=9 / deblock=1:-2:-2 / analyse=0x3:0x133 / me=umh / subme=10 / psy=1 / psy_rd=0.70:0.00 / mixed_ref=1 / me_range=24 / chroma_me=1 / trellis=2 / 8x8dct=1 / cqm=0 / deadzone=21,11 / fast_pskip=0 / chroma_qp_offset=-2 / threads=12 / lookahead_threads=3 / sliced_threads=0 / nr=0 / decimate=0 / interlaced=0 / bluray_compat=0 / constrained_intra=0 / bframes=10 / b_pyramid=2 / b_adapt=2 / b_bias=0 / direct=3 / weightb=1 / open_gop=0 / weightp=2 / keyint=240 / keyint_min=23 / scenecut=40 / intra_refresh=0 / rc_lookahead=60 / rc=2pass / mbtree=0 / bitrate=6500 / ratetol=1.0 / qcomp=0.60 / qpmin=0 / qpmax=51 / qpstep=4 / cplxblur=20.0 / qblur=0.5 / vbv_maxrate=62500 / vbv_bufsize=78125 / nal_hrd=none / filler=0 / ip_ratio=1.40 / pb_ratio=1.30 / aq=1:0.60Язык : EnglishDefault : ДаForced : Да

Аудио #1Идентификатор : 2Формат : AC-3Формат/Информация : Audio Coding 3Расширение режима : CM (complete main)Параметр Endianness формата : BigИдентификатор кодека : A_AC3Продолжительность : 22 м.Вид битрейта : ПостоянныйБитрейт : 192 Кбит/секКаналы : 2 каналаРасположение каналов : Front: L RЧастота : 48,0 КГцЧастота кадров : 31,250 кадров/сек (1536 spf)Метод сжатия : С потерямиРазмер потока : 30,3 Мбайт (2%)Заголовок : Disney / НевафильмЯзык : RussianDefault : ДаForced : Да

Аудио #2Идентификатор : 3Формат : AC-3Формат/Информация : Audio Coding 3Расширение режима : CM (complete main)Параметр Endianness формата : BigИдентификатор кодека : A_AC3Продолжительность : 22 м.Вид битрейта : ПостоянныйБитрейт : 384 Кбит/секКаналы : 6 каналовРасположение каналов : Front: L C R, Side: L R, LFEЧастота : 48,0 КГцЧастота кадров : 31,250 кадров/сек (1536 spf)Метод сжатия : С потерямиРазмер потока : 60,6 Мбайт (5%)Заголовок : LostFilmЯзык : RussianDefault : НетForced : Нет

Аудио #3Идентификатор : 4Формат : AC-3Формат/Информация : Audio Coding 3Расширение режима : CM (complete main)Параметр Endianness формата : BigИдентификатор кодека : A_AC3Продолжительность : 22 м.Вид битрейта : ПостоянныйБитрейт : 192 Кбит/секКаналы : 2 каналаРасположение каналов : Front: L RЧастота : 48,0 КГцЧастота кадров : 31,250 кадров/сек (1536 spf)Метод сжатия : С потерямиРазмер потока : 30,3 Мбайт (2%)Заголовок : 3плюс / SDI MediaЯзык : RussianDefault : НетForced : Нет

Аудио #4Идентификатор : 5Формат : AC-3Формат/Информация : Audio Coding 3Расширение режима : CM (complete main)Параметр Endianness формата : BigИдентификатор кодека : A_AC3Продолжительность : 22 м.Вид битрейта : ПостоянныйБитрейт : 192 Кбит/секКаналы : 2 каналаРасположение каналов : Front: L RЧастота : 48,0 КГцЧастота кадров : 31,250 кадров/сек (1536 spf)Метод сжатия : С потерямиРазмер потока : 30,3 Мбайт (2%)Заголовок : ПлюсПлюс / LeDoyen StudioЯзык : UkrainianDefault : НетForced : Нет

Аудио #5Идентификатор : 6Формат : AC-3Формат/Информация : Audio Coding 3Расширение режима : CM (complete main)Параметр Endianness формата : BigИдентификатор кодека : A_AC3Продолжительность : 22 м.Вид битрейта : ПостоянныйБитрейт : 640 Кбит/секКаналы : 6 каналовРасположение каналов : Front: L C R, Side: L R, LFEЧастота : 48,0 КГцЧастота кадров : 31,250 кадров/сек (1536 spf)Метод сжатия : С потерямиРазмер потока : 101 Мбайт (8%)Язык : EnglishDefault : НетForced : Нет

Текст #1Идентификатор : 7Формат : UTF-8Идентификатор кодека : S_TEXT/UTF8Идентификатор кодека/Информация : UTF-8 Plain TextЗаголовок : расширенный момент LostFilmЯзык : RussianDefault : НетForced : Нет

Текст #2Идентификатор : 8Формат : UTF-8Идентификатор кодека : S_TEXT/UTF8Идентификатор кодека/Информация : UTF-8 Plain TextЯзык : EnglishDefault : НетForced : Нет


Трекер:  [ 11-Июн-2018 17:54 ]

  

Скачать .torrent

Размер .torrent файла 126 KB


Размер: 24.86 GB
Хэш (hash) релиза: 59d56ba9dcbccdf3f7749e0b228e39ca65e5ab35
Подписка на обновления:

Торренты, похожие на Звездные войны: Повстанцы Star Wars: Rebels скачать торрент

Форум Название Автор Размер S L Добавлен
Мультсериалы ·· Звездные войны: Повстанцы / Star Wars Rebels / Сезон: 2 / Серии: 1-22 из 22 (Стюарт Ли, Дэйв Филони, Стивен Дж. Ли) [2015-2016, фантастика, боевик, приключения, WEB-DLRip] Dub (Невафильм) + Original Galfimbul 83757486087.8 GB 0 0 1468193845

02:37

11-Июл-16

Мультсериалы ·· Звездные войны: Повстанцы / Star Wars Rebels / Сезон: 2 / Серии: 1-22 из 22 (Стюарт Ли, Дэйв Филони, Стивен Дж. Ли) [2015-2016, фантастика, боевик, приключения, WEB-DLRip] Dub (Невафильм) + Original Galfimbul 83757424647.8 GB 0 0 1466374422

01:13

20-Июн-16

Мультсериалы ·· Звездные войны: Повстанцы / Star Wars Rebels / Сезон: 2 / Серии: 1-18 из 22 (Стюарт Ли, Дэйв Филони, Стивен Дж. Ли) [2015-2016, фантастика, боевик, приключения, WEB-DLRip] Dub (Невафильм) + Original Galfimbul 68437012486.37 GB 0 0 1464473898

01:18

29-Май-16

Мультсериалы ·· Звездные войны: Повстанцы / Star Wars Rebels / Сезон: 2 / Серии: 1-15 из 22 (Стюарт Ли, Дэйв Филони, Стивен Дж. Ли) [2015-2016, фантастика, боевик, приключения, WEB-DLRip] Dub (Невафильм) + Original Galfimbul 57017303045.31 GB 0 0 1462662203

02:03

8-Май-16

Мультсериалы ·· Звездные войны: Повстанцы / Star Wars Rebels / Сезон: 2 / Серии: 1-12 из 22 (Стюарт Ли, Дэйв Филони, Стивен Дж. Ли) [2015-2016, фантастика, боевик, приключения, WEB-DLRip] Dub (Невафильм) + Original Galfimbul 45583933444.25 GB 0 0 1460907567

18:39

17-Апр-16

Мультсериалы ·· Звездные войны: Повстанцы / Star Wars: Rebels / Сезон: 2 / Серии: 1-3 из 22 (Стюарт Ли, Дэйв Филони, Стивен Дж. Ли) [2015-2016, фантастика, боевик, приключения, WEB-DLRip] Dub (Невафильм) + Original Galfimbul 11292692481.05 GB 0 0 1455359855

13:37

13-Фев-16

Еще никто не оставлял запись к записи скачать торрент Звездные войны: Повстанцы Star Wars: Rebels . Будь первым!

!Обратная связь