Gay Boys Nude Adult Photo Magazine – May 2018 | Socratis Otto | V.I.P. - Die Bodyguards

Скачать через торрент Эмма: Любовный Роман в Викторианскую Эпоху бесплатно Аниме Все серии на русском torrent

Статистика раздачи
Размер:  5.05 GB   |    Зарегистрирован:  6 дней   |    .torrent скачан:  28 раз   |   
Раздают:  1  
   
загрузка...
 
Автор Сообщение

Galfimbul

avatar Galfimbul



Страна: Япония
Год выпуска: 2005
Жанр: романтика, повседневность
Тип: TV
Продолжительность: 12 эп, ~24 мин. серия
Режиссер: Кобаяси Цунэо
Студия: Studio Pierrot

Субтитры:
1: полные/надписи ingen-funsubbs
Nodanoshi (перевод) Xander & Пушистая (редакция)

Озвучка:
1: Anything Group
одноголосая Sad Kit (муж)
Порядок просмотра:
1: Eikoku Koi Monogatari Emma TV 1 - эта раздача
2: Eikoku Koi Monogatari Emma TV 2 Special
3: Eikoku Koi Monogatari Emma TV 2
Информационные ссылки: MAL | World Art | AniDB
Описание: Уильям Джонс – отпрыск богатого, хоть и незнатного семейства – решает навестить свою старую гувернантку. И, несмотря на то, что строгая старая дама и поныне внушает «мастеру» Уильяму священный трепет, его визит оказывается не вовсе неприятным: воображение молодого мистера Джонса неожиданно пленяет горничная по имени Эмма! Это тихая, скромная и отменно благовоспитанная молодая особа... ее так и хочется назвать «леди» – невзирая на то, что Эмма носит наколку и передник, метет полы и подает чай. Разумеется, мистеру Джонсу не пристало проводить время в обществе прислуги, но Эмма так мила, так трогательна и ненавязчива. Лучше пока просто не думать о том, что сказали б об этом знакомстве родственники!..

© Анастасия Розанова (World Art)
Качество: DVDRip
Тип видео: Без хардсаба, Без линковки
Автор рипа: Anon (Source: R2J)
Формат видео: MKV
Главы: присутствуют
Совместимость с бытовыми плеерами: нет
Видео: х264, 8 bit, 1280x720, ~1499 kbps, 23.976 fps
Аудио JAP (1): VORBIS, ~235 kbps, 48.0 kHz, 2 ch (в составе контейнера)
Аудио JAP (2): FLAC, ~622 kbps, 48.0 kHz, 2 ch (внешними файлами)
Аудио RUS (1): AAC, 192 kbps, 48.0 kHz, 2 ch (внешними файлами)
Субтитры RUS (1): ASS (внешними файлами)
<div class="sp-wrap">
<div class="sp-head folded">Media Info</div>
<div class="sp-body">

GeneralUnique ID : 308319910329644671374191490487958269632 (0xE7F44138F7020B4C7F538F234E166EC0)Complete name : E:\Раздачи\Eikoku Koi Monogatari Emma TV 1\[01] Emma TV 1 01 серия.mkvFormat : MatroskaFormat version : Version 4 / Version 2File size : 300 MiBDuration : 24 min 10 sOverall bit rate mode : VariableOverall bit rate : 1 736 kb/sMovie name : Emma TV 1 01 серияEncoded date : UTC 2018-06-09 09:31:02Writing application : mkvmerge v23.0.0 ('The Bride Said No') 64-bitWriting library : libebml v1.3.6 + libmatroska v1.4.9

VideoID : 1Format : AVCFormat/Info : Advanced Video CodecFormat profile : [email protected] settings, CABAC : YesFormat settings, RefFrames : 5 framesCodec ID : V_MPEG4/ISO/AVCDuration : 24 min 10 sBit rate : 1 446 kb/sWidth : 1 280 pixelsHeight : 720 pixelsDisplay aspect ratio : 16:9Frame rate mode : ConstantFrame rate : 23.976 (24000/1001) FPSColor space : YUVChroma subsampling : 4:2:0Bit depth : 8 bitsScan type : ProgressiveBits/(Pixel*Frame) : 0.065Stream size : 250 MiB (83%)Title : [R2J]Writing library : x264 core 133 r2334 a3ac64bEncoding settings : cabac=1 / ref=5 / deblock=1:-1:-1 / analyse=0x3:0x113 / me=umh / subme=11 / psy=1 / psy_rd=0.90:0.00 / mixed_ref=1 / me_range=32 / chroma_me=1 / trellis=2 / 8x8dct=1 / cqm=0 / deadzone=21,11 / fast_pskip=0 / chroma_qp_offset=-2 / threads=12 / lookahead_threads=1 / sliced_threads=0 / nr=0 / decimate=1 / interlaced=0 / bluray_compat=0 / constrained_intra=0 / bframes=3 / b_pyramid=0 / b_adapt=2 / b_bias=0 / direct=3 / weightb=1 / open_gop=0 / weightp=2 / keyint=240 / keyint_min=23 / scenecut=40 / intra_refresh=0 / rc_lookahead=50 / rc=crf / mbtree=1 / crf=16.5 / qcomp=0.70 / qpmin=10 / qpmax=51 / qpstep=4 / vbv_maxrate=62500 / vbv_bufsize=78125 / crf_max=0.0 / nal_hrd=none / ip_ratio=1.40 / aq=1:1.10Language : JapaneseDefault : YesForced : NoColor range : LimitedColor primaries : BT.601 PALTransfer characteristics : BT.470 System B, BT.470 System GMatrix coefficients : BT.601

AudioID : 2Format : VorbisFormat settings, Floor : 1Codec ID : A_VORBISDuration : 24 min 10 sBit rate mode : VariableBit rate : 256 kb/sChannel(s) : 2 channelsSampling rate : 48.0 kHzCompression mode : LossyStream size : 44.3 MiB (15%)Title : [Original]Writing library : libVorbis (??] (20150105 (??])Language : JapaneseDefault : YesForced : No

Menu00:00:00.000 : ru:Часть А00:00:52.094 : ru:Опенинг00:02:22.059 : ru:Часть Б00:11:45.079 : ru:Часть В00:22:25.052 : ru:Эндинг00:23:54.975 : ru:Далее
File: E:\Раздачи\Eikoku Koi Monogatari Emma TV 1\[01] Emma TV 1 01 серия.mkv Duration: 00:24:11 (1450.95) Track #1: video ([R2J]) lang: jpn (2) codc: V_MPEG4/ISO/AVC -> H264/AVC (22) reso: 1280x720 -> 16:9 fram: 23.976 fps rate: 1499 kbps (1499.18) dura: 00:24:11 (1450.91) size: 259.30 MB (271896249) Track #2: audio ([Original]) lang: jpn -> Japanese (2) codc: A_VORBIS -> Ogg Vorbis (8) chan: 2 -> Stereo samp: 48000 Hz rate: 235 kbps (235.22) dura: 00:24:11 (1450.74) size: 40.68 MB (42655757) Sizes: (check sanity) disk: 300.35 MB (314936711) trac: 299.98 MB (314552006) [based on track size] bitr: 299.98 MB (314556849) [based on bitrate] tdif: 375.69 KB (384705) 0.12% bdif: 370.96 KB (379861) 0.12%
</div>
</div>
01. Подарок
02. Два мира
03. Признание
04. Мьюдис
05. Званный обед
06. Визит
07. Хрустальный дворец
08. Карманные часы
09. Одиночество
10. Потерявшие друг друга
11. Прошлое
12. Долинная лилия
...1077607
- наличие озвучки, отсутствие хардсаба

...2703541
- наличие субтитров, лучше качество видео http://slowpics.org/comparison/11260de4-e4c9-4d8d-a8ab-9bea212eee03

В данном релизе озвучка и субтитры выложены внешними файлами.
Для просмотра на ПК

с озвучкой: переместите mka файлы из папки "Rus Sound -> [Команда/ники дабберов]" и ass файлы из папки "Rus Subs ->[Команда/ники сабберов] Надписи" (по желанию) в папку с видео.
с субтитрами: переместите ass файлы из папки "Rus Subs -> [Команда/ники сабберов] Полные" в папку с видео.

90% современных плееров подключат дорожки автоматически. Так же рекомендуется указать rus и(ли) ru, как язык по умолчанию для выбора дорожек, в настройках вашего плеера и(ли) рендера. Подробнее о настройке плеера можно прочитать тут.
Если релиз содержит 10 битное видео, и у вас проблемы с качеством картинки, инструкцию по просмотру можно найти тут.
Все видео файлы в моих релизах пересобираются. Вы не сможете раздавать их на других раздачах.
Если в релизе есть раздел "Порядок просмотра":

Скачайте все части тайтла.
Поместите все раздачи (видео и необходимые дорожки) в одну папку.
Все сезоны и серии будут в необходимом порядке для просмотра.


Трекер:  [ 11-Июн-2018 16:30 ]

  

Скачать .torrent

Размер .torrent файла 35 KB


Размер: 5.05 GB
Хэш (hash) релиза: 498182332f7ff99e5991f6dc15723a4d1691b9fb
Подписка на обновления:

Еще никто не оставлял запись к записи скачать торрент Эмма: Любовный Роман в Викторианскую Эпоху . Будь первым!

!Обратная связь