Melissa and Joey (106) | Anclados - Temporada 1 | 153,458 Hits Guardians of the Galaxy Vol.2 (2017) Dual Audio

Скачать через торрент Комик в городе. Cочи Фильм бесплатно в хорошем качестве torrent

Скачивайте на UnionPeer.org фильмы через торрент без регистрации. Новинки кино в хорошем качестве через торрент. На UnionPeer.org можно скачать через торрент фильмы 2014 и 2015 годов. Самые новые фильмы.

Скачать торрент Комик в городе. Cочи бесплатно через .torrent фильм мультфильм сериал

Статистика раздачи
Размер:  682 MB   |    Зарегистрирован:  3 месяца 12 дней   |    .torrent скачан:  62 раза   |   
Раздают:  1  
   
загрузка...
 
Автор Сообщение

Galfimbul

avatar Galfimbul


Комик в городе. Сочи (выпуск 14-й от 10-06-2018)

Дата/Год выпуска: 2018
Страна: Россия
Жанр: Юмор
Продолжительность: 00:22:06
Перевод: Не требуется
Режиссер: Роман Новиков
Телеканал: ТНТ HD
В ролях: Руслан Белый

Описание: Дерзкий проект Руслана Белого под названием Комик в городе 1 сезон, 14 выпуск явно не всем придется по душе. Стендапер объедет почти полтора десятка российских городов, чтобы с глазу на глаз пообщаться с местными жителями о обсмеять все, среди чего они живут. Стоит ли волноваться за его здоровье – смотрите в новом выпуске.

качество: HDTV 1080i
формат: MKV
Видео: 1920x1080 (16:9), 25.000 fps, AVC ~4 500 kbps avg
Аудио: AC3, 192 kbps, 48 kHz, 2 ch
GeneralUnique ID : 190049922387829043889490896789046193972 (0x8EFA489CFE23CBEB962D7C2DA09E6F34)Complete name : D:\Humor\Stand Up\Komik v gorode.Vypusk 14.Sochi.mkvFormat : MatroskaFormat version : Version 2File size : 682 MiBDuration : 22mn 5sOverall bit rate mode : VariableOverall bit rate : 4 317 KbpsEncoded date : UTC 2018-06-10 21:40:38Writing application : mkvmerge v6.1.0 ('Old Devil') built on Mar 4 2013 09:10:42Writing library : libebml v1.3.0 + libmatroska v1.4.0

VideoID : 1Format : AVCFormat/Info : Advanced Video CodecFormat profile : [email protected] settings, CABAC : YesFormat settings, ReFrames : 4 framesCodec ID : V_MPEG4/ISO/AVCDuration : 22mn 5sBit rate mode : VariableBit rate : 4 040 KbpsMaximum bit rate : 4 500 KbpsWidth : 1 920 pixelsHeight : 1 080 pixelsDisplay aspect ratio : 16:9Frame rate mode : ConstantFrame rate : 25.000 fpsColor space : YUVChroma subsampling : 4:2:0Bit depth : 8 bitsScan type : ProgressiveBits/(Pixel*Frame) : 0.078Stream size : 638 MiB (94%)Default : YesForced : No

AudioID : 2Format : AC-3Format/Info : Audio Coding 3Mode extension : CM (complete main)Format settings, Endianness : BigCodec ID : A_AC3Duration : 22mn 5sBit rate mode : ConstantBit rate : 192 KbpsChannel count : 2 channelsChannel positions : Front: L RSampling rate : 48.0 KHzBit depth : 16 bitsCompression mode : LossyStream size : 30.3 MiB (4%)Default : YesForced : No


Трекер:  [ 11-Июн-2018 01:12 ]

  

Скачать .torrent

Размер .torrent файла 13 KB


Размер: 682 MB
Хэш (hash) релиза: 7a7f0d94c8b610613d57b323ab3746691db6cbae
Подписка на обновления:

Еще никто не оставлял запись к записи скачать торрент Комик в городе. Cочи . Будь первым!

!Обратная связь