Pier Francesco Aiello per PFA Films e Feltrinelli1 | New packaging | Zum Seitenanfang

Скачать через торрент Так не бывает Серии: 1-8 из 8 Фильм бесплатно в хорошем качестве torrent

Скачивайте на UnionPeer.org фильмы через торрент без регистрации. Новинки кино в хорошем качестве через торрент. На UnionPeer.org можно скачать через торрент фильмы 2014 и 2015 годов. Самые новые фильмы.

Скачать торрент Так не бывает Серии: 1-8 из 8 бесплатно через .torrent фильм мультфильм сериал

Статистика раздачи
Размер:  5.47 GB   |    Зарегистрирован:  4 месяца 10 дней   |    .torrent скачан:  93 раза   |   
Раздают:  1  
   
загрузка...
 
Автор Сообщение

Galfimbul

avatar Galfimbul


Так не бывает

Год выпуска: 2015
Производство: Марс Медиа Энтертейнмент
Жанр: комедия
Продолжительность: ~00:49:00 серия
Субтитры: нет

Режиссёр: Наталья Хлопецкая

В ролях: Виталий Хаев, Вера Воронкова, Людмила Чурсина, Сергей Чирков, Александра Тюфтей, Евгения Розанова, Сергей Годин, Иван Макаревич, Александр Яцко, Алексей Колубков, Александр Пацевич, Юрий Черкасов, Алексей Михайлов, Сергей Петров, Александр Карпиловский, Герман Строганов, Татьяна Самойлова, Сергей Холмогоров, Владимир Демидов, Дмитрий Грачёв, Янина Хачатурова, Константин Мошкин, Ксения Радченко, Владимир Кебин, Любовь Иванова, Олег Казанин, Светлана Закирова, Денис Кудрявцев, Егор Потапов, Ольга Пащенко

Описание: Илья и Маша знакомят родителей во время празднования своей свадьбы. Отношения между отцом Маши Романом Петровичем и матерью Ильи Дарьей Олеговной сразу не заладились. Но проходит год, и неожиданно между ними вспыхивает страсть. Осложняет все то, что Роман Петрович женат…

Реклама: Нет.

Кинопоиск

Sample

Качество: HDTVRip - Nicodem.Files-x
Формат: AVI
Видео кодек: XviD
Аудио кодек: AC3
Видео: 720x400 (1.80:1), 25 fps, XviD build 73 ~1780 kbps avg, 0.248 bit/pixel
Аудио: 48.0 kHz, AC3 Dolby Digital, 2/0 (L,R) ch, ~ 192 kbps
General
Complete name : D:\Так не бывает.2015.HDTVRip.by.Nicodem.Files-x\01.Так не бывает.2015.HDTVRip.by.Nicodem.Files-x.avi
Format : AVI
Format/Info : Audio Video Interleave
File size : 701 MiB
Duration : 49 min 18 s
Overall bit rate : 1 987 kb/s
Writing application : VirtualDubMod 1.5.10.3 | www.virtualdub-fr.org || (build 2550/release)
Writing library : VirtualDubMod build 2550/release

Video
ID : 0
Format : MPEG-4 Visual
Format profile : Advanced [email protected]
Format settings : BVOP1 / QPel / Custom Matrix
Format settings, BVOP : 1
Format settings, QPel : Yes
Format settings, GMC : No warppoints
Format settings, Matrix : Custom
Codec ID : XVID
Codec ID/Hint : XviD
Duration : 49 min 18 s
Bit rate : 1 785 kb/s
Width : 720 pixels
Height : 400 pixels
Display aspect ratio : 16:9
Frame rate : 25.000 FPS
Color space : YUV
Chroma subsampling : 4:2:0
Bit depth : 8 bits
Scan type : Progressive
Compression mode : Lossy
Bits/(Pixel*Frame) : 0.248
Stream size : 630 MiB (90%)
Writing library : XviD 73

Audio
ID : 1
Format : AC-3
Format/Info : Audio Coding 3
Codec ID : 2000
Duration : 49 min 18 s
Bit rate mode : Constant
Bit rate : 192 kb/s
Channel(s) : 2 channels
Channel positions : Front: L R
Sampling rate : 48.0 kHz
Frame rate : 31.250 FPS (1536 SPF)
Bit depth : 16 bits
Compression mode : Lossy
Stream size : 67.7 MiB (10%)
Alignment : Split accross interleaves
Interleave, duration : 40 ms (1.00 video frame)
Interleave, preload duratio : 500 ms
Service kind : Complete Main


Трекер:  [ 09-Июн-2018 21:12 ]

  

Скачать .torrent

Размер .torrent файла 28 KB


Размер: 5.47 GB
Хэш (hash) релиза: 9e3969805907437319b5a8334f672c9048d6e722
Подписка на обновления:

Еще никто не оставлял запись к записи скачать торрент Так не бывает Серии: 1-8 из 8 . Будь первым!

!Обратная связь