Les razmokets | Les Rois du Texas | Les Sales Blagues de L'Echo

Скачать через торрент Лощина The Hollow Фильм бесплатно в хорошем качестве torrent

Скачивайте на UnionPeer.org фильмы через торрент без регистрации. Новинки кино в хорошем качестве через торрент. На UnionPeer.org можно скачать через торрент фильмы 2014 и 2015 годов. Самые новые фильмы.

Скачать торрент Лощина The Hollow бесплатно через .torrent фильм мультфильм сериал

Статистика раздачи
Размер:  6.11 GB   |    Зарегистрирован:  2 месяца 13 дней   |    .torrent скачан:  52 раза   |   
Раздают:  1  
   
загрузка...
 
Автор Сообщение

Galfimbul

avatar Galfimbul


Лощина / The Hollow

Страна: Канада
Жанр: анимация, драма
Продолжительность серии: 24:00
Год выпуска: 2018
Перевод: Субтитры
Русские субтитры: есть

Режиссёр: Джош Мефам / Josh Mepham
Роли озвучивали: Эшли Болл, Корнелл Парналл, Эдриан Петрив

Описание: Трое подростков пробуждаются в опасном мире и пытаются понять, как они связаны между собой, попутно выживая в загадочном жестоком мире.
1. The Room
2. The Desert
3. Apocalypse
4. The Lighthouse
5. Ishibo
6. Undead
7. The Riddle
8. Ice
9. Cocoon
10. Colrath
Семпл: http://multi-up.com/1201028

Качество: WEB-DL
Формат: MKV
Видео: AVC x264, 1920x1080, 23.976fps, 2800~4300kbps
Аудио: [ENG] AC3, 48kHz, 6ch, 384kbps
Субтитры: srt на все серии, в составе mkv
ОбщееУникальный идентификатор : 65107546157738816471225842630105524398 (0x30FB41DCC786EAE8AFDDAE2A6F9068AE)Полное имя : D:\Downloads\ХОЛЛОУ\The.Hollow.S01E01.1080p.WEB.x264-EDHD.mkvФормат : MatroskaВерсия формата : Version 4 / Version 2Размер файла : 540 МбайтПродолжительность : 24 м. 8 с.Режим общего битрейта : ПеременныйОбщий поток : 3128 Кбит/секПрограмма кодирования : mkvmerge v20.0.0 ('I Am The Sun') 64-bitБиблиотека кодирования : libebml v1.3.5 + libmatroska v1.4.8

ВидеоИдентификатор : 1Формат : AVCФормат/Информация : Advanced Video CodecПрофиль формата : [email protected]Параметр CABAC формата : ДаПараметр RefFrames формата : 3 кадраИдентификатор кодека : V_MPEG4/ISO/AVCПродолжительность : 24 м. 8 с.Вид битрейта : ПеременныйБитрейт : 2681 Кбит/секНоминальный битрейт : 2870 Кбит/секМаксимальный битрейт : 4305 Кбит/секШирина : 1920 пикселейВысота : 1080 пикселейСоотношение сторон : 16:9Режим частоты кадров : ПостоянныйЧастота кадров : 23,976 (24000/1001) кадра/секЦветовое пространство : YUVСубдискретизация насыщенности : 4:2:0Битовая глубина : 8 битТип развёртки : ПрогрессивнаяБит/(Пиксели*Кадры) : 0.054Размер потока : 463 Мбайт (86%)Библиотека кодирования : x264 core 148Настройки программы : cabac=1 / ref=3 / deblock=1:0:0 / analyse=0x1:0x111 / me=umh / subme=10 / psy=1 / psy_rd=1.00:0.00 / mixed_ref=1 / me_range=24 / chroma_me=1 / trellis=2 / 8x8dct=0 / cqm=0 / deadzone=21,11 / fast_pskip=1 / chroma_qp_offset=-2 / threads=6 / lookahead_threads=1 / sliced_threads=0 / nr=0 / decimate=1 / interlaced=0 / bluray_compat=0 / stitchable=1 / constrained_intra=0 / bframes=2 / b_pyramid=0 / b_adapt=2 / b_bias=0 / direct=3 / weightb=1 / open_gop=0 / weightp=2 / keyint=48 / keyint_min=25 / scenecut=0 / intra_refresh=0 / rc_lookahead=48 / rc=2pass / mbtree=1 / bitrate=2870 / ratetol=1.0 / qcomp=0.50 / qpmin=6 / qpmax=51 / qpstep=4 / cplxblur=20.0 / qblur=0.5 / vbv_maxrate=4305 / vbv_bufsize=5740 / nal_hrd=vbr / filler=0 / ip_ratio=1.40 / aq=1:1.00Default : ДаForced : Нет

АудиоИдентификатор : 2Формат : AC-3Формат/Информация : Audio Coding 3Параметр Endianness формата : BigИдентификатор кодека : A_AC3Продолжительность : 24 м. 8 с.Вид битрейта : ПостоянныйБитрейт : 384 Кбит/секКаналы : 6 каналовРасположение каналов : Front: L C R, Side: L R, LFEЧастота : 48,0 КГцЧастота кадров : 31,250 кадров/сек (1536 SPF)Битовая глубина : 16 битМетод сжатия : С потерямиРазмер потока : 66,3 Мбайт (12%)ServiceKind/String : Complete MainDefault : ДаForced : Нет
Предыдущие и альтернативные раздачи

Трекер:  [ 09-Июн-2018 01:54 ]

  

Скачать .torrent

Размер .torrent файла 16 KB


Размер: 6.11 GB
Хэш (hash) релиза: 95e4cf309124e7576ce13e6ab6d7bffe5d5be423
Подписка на обновления:

Еще никто не оставлял запись к записи скачать торрент Лощина The Hollow . Будь первым!

!Обратная связь