GraphicRiver - Sevenstyles Poster Flyer Templates Bundle (Vol.2) | Entourage | Taurean Blacque

Скачать через торрент Comedy Club Фильм бесплатно в хорошем качестве torrent

Скачивайте на UnionPeer.org фильмы через торрент без регистрации. Новинки кино в хорошем качестве через торрент. На UnionPeer.org можно скачать через торрент фильмы 2014 и 2015 годов. Самые новые фильмы.

Скачать торрент Comedy Club бесплатно через .torrent фильм мультфильм сериал

Статистика раздачи
Размер:  1.37 GB   |    Зарегистрирован:  2 месяца 11 дней   |    .torrent скачан:  86 раз   |   
Раздают:  3  
   
загрузка...
 
Автор Сообщение

Galfimbul

avatar Galfimbul


Comedy Club (выпуск 479 от 08-06-2018)

Дата/Год выпуска: 2018
Страна: Россия
Жанр: Юмор
Продолжительность: 00:45:34
Перевод: Не требуется
Режиссер: Ксения Чашей, Дмитрий Ефимович, Роман Новиков, Гарик Мартиросян

Телеканал: ТНТ HD
Описание: В эфире ТНТ новые выпуски главного комедийного шоу страны. Общение со звездными гостями, знакомства с людьми самых невероятных профессий и абсолютно новые номера от топовых резидентов Comedy Club.

качество: HDTV 1080i
формат: MKV
Видео: 1920x1080 (16:9), 25.000 fps, AVC ~4 500 kbps avg
Аудио: AC3, 192 kbps, 48 kHz, 2 ch
GeneralUnique ID : 227460265171081043001369329324179428642 (0xAB1F40EAF468EC658F1D6E837A1D9522)Complete name : D:\Humor\Comedy\Comedy Club 479 (08-06-2018).mkvFormat : MatroskaFormat version : Version 2File size : 1.37 GiBDuration : 45mn 34sOverall bit rate mode : VariableOverall bit rate : 4 311 KbpsEncoded date : UTC 2018-06-08 19:15:48Writing application : mkvmerge v6.1.0 ('Old Devil') built on Mar 4 2013 09:10:42Writing library : libebml v1.3.0 + libmatroska v1.4.0

VideoID : 1Format : AVCFormat/Info : Advanced Video CodecFormat profile : [email protected] settings, CABAC : YesFormat settings, ReFrames : 4 framesCodec ID : V_MPEG4/ISO/AVCDuration : 45mn 34sBit rate mode : VariableBit rate : 4 034 KbpsMaximum bit rate : 4 500 KbpsWidth : 1 920 pixelsHeight : 1 080 pixelsDisplay aspect ratio : 16:9Frame rate mode : ConstantFrame rate : 25.000 fpsColor space : YUVChroma subsampling : 4:2:0Bit depth : 8 bitsScan type : ProgressiveBits/(Pixel*Frame) : 0.078Stream size : 1.28 GiB (94%)Default : YesForced : No

AudioID : 2Format : AC-3Format/Info : Audio Coding 3Mode extension : CM (complete main)Format settings, Endianness : BigCodec ID : A_AC3Duration : 45mn 34sBit rate mode : ConstantBit rate : 192 KbpsChannel count : 2 channelsChannel positions : Front: L RSampling rate : 48.0 KHzBit depth : 16 bitsCompression mode : LossyStream size : 62.6 MiB (4%)Default : YesForced : No


Трекер:  [ 08-Июн-2018 22:42 ]

  

Скачать .torrent

Размер .torrent файла 14 KB


Размер: 1.37 GB
Хэш (hash) релиза: 8a2331420f3654f99d536696f14127a17a4dfddb
Подписка на обновления:

Торренты, похожие на Comedy Club скачать торрент

Форум Название Автор Размер S L Добавлен
Развлекательные телепередачи и шоу ·· Comedy Club (Выпуск 381) (эфир от 06.12.13) (Гарик Мартиросян) [2013, Юмор, Stand-up comedy, WEBD-LRip] Galfimbul 655344146625 MB 0 0 1386328256

14:10

6-Дек-13

Развлекательные телепередачи и шоу ·· Comedy Club (выпуск 478 от 01-06-2018) (Ксения Чашей, Дмитрий Ефимович, Роман Новиков, Гарик Мартиросян) [2018, Юмор, HDTVRip] Galfimbul 577966080551 MB 0 0 1528141337

22:42

4-Июн-18

Развлекательные телепередачи и шоу ·· Comedy Club (выпуск 478 от 01-06-2018) (Ксения Чашей, Дмитрий Ефимович, Роман Новиков, Гарик Мартиросян) [2018, Юмор, HDTV 1080i] Galfimbul 14687322231.37 GB 0 0 1527885728

23:42

1-Июн-18

Развлекательные телепередачи и шоу ·· Comedy Club (выпуск 477 от 25-05-2018) (Ксения Чашей, Дмитрий Ефимович, Роман Новиков, Гарик Мартиросян) [2018, Юмор, HDTVRip] Galfimbul 588247040561 MB 0 0 1527338530

15:42

26-Май-18

Развлекательные телепередачи и шоу ·· Comedy Club (выпуск 477 от 25-05-2018) (Ксения Чашей, Дмитрий Ефимович, Роман Новиков, Гарик Мартиросян) [2018, Юмор, HDTV 1080i] Galfimbul 14546018761.35 GB 0 0 1527280929

23:42

25-Май-18

Развлекательные телепередачи и шоу ·· Comedy Club (выпуск 476 от 18-05-2018) (Ксения Чашей, Дмитрий Ефимович, Роман Новиков, Гарик Мартиросян) [2018, Юмор, HDTVRip] Galfimbul 587900928561 MB 0 0 1527021733

23:42

22-Май-18

Развлекательные телепередачи и шоу ·· Comedy Club (выпуск 476 от 18-05-2018) (Ксения Чашей, Дмитрий Ефимович, Роман Новиков, Гарик Мартиросян) [2018, Юмор, HDTV 1080i] Galfimbul 14063009131.31 GB 0 0 1526674331

23:12

18-Май-18

Развлекательные телепередачи и шоу ·· 19 миниатюр "Дуэта имени Чехова" (Дует імені Чехова)(Comedy Club Ukraine / Камеді Клаб Україна) Galfimbul 982105354937 MB 0 0 1519991051

14:44

2-Мар-18

Развлекательные телепередачи и шоу ·· Новый Comedy Club (Ксения Чашей, Дмитрий Ефимович, Роман Новиков, Гарик Мартиросян) [28.04.2017, Юмор, HDTV 1080i] Galfimbul 52214539084.86 GB 0 0 1509957958

11:45

6-Ноя-17

Развлекательные телепередачи и шоу ·· Новый Comedy Club (Ксения Чашей, Дмитрий Ефимович, Роман Новиков, Гарик Мартиросян) [12.05.2017, Юмор, HDTV 1080i] Galfimbul 54430167965.07 GB 0 0 1509957943

11:45

6-Ноя-17

Развлекательные телепередачи и шоу ·· Новый Comedy Club в Барвихе (Ксения Чашей, Дмитрий Ефимович, Роман Новиков, Гарик Мартиросян) [03.11.2017, Юмор, HDTV 1080i] Galfimbul 34473964203.21 GB 0 0 1509956251

11:17

6-Ноя-17

Развлекательные телепередачи и шоу ·· Новый Comedy Club в Барвихе [01-08] (Ксения Чашей, Дмитрий Ефимович, Роман Новиков, Гарик Мартиросян) [2017, Юмор, WEB-DLRip] Galfimbul 53873418245.02 GB 0 0 1509956243

11:17

6-Ноя-17

Развлекательные телепередачи и шоу ·· Comedy Club в Барвихе (Ксения Чашей, Дмитрий Ефимович, Роман Новиков) [2017 г., ТВ-шоу, юмор, HDTV 1080i] | 03.11.2017 Galfimbul 34473964203.21 GB 0 0 1509790805

13:20

4-Ноя-17

Развлекательные телепередачи и шоу ·· Камеди клаб / Comedy Club (Гарик Мартиросян) [2005, Юмор, DVDRip] Galfimbul 39509708803.68 GB 0 0 1509783462

11:17

4-Ноя-17

Развлекательные телепередачи и шоу ·· Comedy Club Ukraine, Выпуски 1-50. ПостКВН. (МЕГАРАЗДАЧА) Galfimbul 2571249794223.95 GB 0 0 1499966225

20:17

13-Июл-17

Развлекательные телепередачи и шоу ·· ПостКВН. Comedy Club на Первом, Выпуск 1 [2006, Юмор, SATRip] Galfimbul 747997184713 MB 0 0 1499624219

21:16

9-Июл-17

Развлекательные телепередачи и шоу ·· ПостКВН. Comedy Club на Первом, Выпуск 2 [2006, Юмор, SATRip] Galfimbul 732121088698 MB 0 0 1499624211

21:16

9-Июл-17

Развлекательные телепередачи и шоу ·· ПостКВН. Comedy Club на Первом, Выпуск 3 [2007, Юмор, SATRip] Galfimbul 876447744836 MB 0 0 1499624202

21:16

9-Июл-17

Развлекательные телепередачи и шоу ·· ПостКВН. Comedy Club на Первом, Выпуск 4 [2007, Юмор, SATRip] Galfimbul 12587970561.17 GB 0 0 1499624193

21:16

9-Июл-17

Еще никто не оставлял запись к записи скачать торрент Comedy Club . Будь первым!

!Обратная связь