Arachnoquake (2012) | Keanu Reeves | BootIt AIO Retail, Gestor de Arranque Múltiple.

Скачать через торрент Богиня с косичками Mitsuami no Kamisama бесплатно Аниме Все серии на русском torrent

Статистика раздачи
Размер:  2.34 GB   |    Зарегистрирован:  2 месяца 10 дней   |    .torrent скачан:  37 раз   |   
Раздают:  1  
   
загрузка...
 
Автор Сообщение

Galfimbul

avatar Galfimbul


Богиня с косичками / Mitsuami no Kamisama / Pigtails
Продолжительность: 30 мин.
Год выпуска: 2015
Страна: Япония
Тип: Movie
Жанр: повседневность, драма
Студия: Production I.G
Описание: И содрогнулась земля. И вышло море из берегов. И было это только начало всех бедствий. А затем...
Девушка, уединённо живущая на берегу моря. Привычного мира больше нет, но для неё день проходит как обычно. Она заплетает волосы в косы, стирает и сушит бельё. Она не замечает, как вокруг неё вещи говорят с миром - подушка спорит с зонтиком о катастрофе, новая зубная щётка безуспешно пытается быть вежливой со старой, а одежда ссорится на вешалке.
Есть вещи, которые будут использоваться, пока не сломаются. Но когда старое уничтожено, нечто новое может возродиться.
Качество: BDRip
Рип: [ReinForce]
Тип релиза: без хардсаба, без линковки
Формат видео: MKV
Видео: MPEG4, 8 bit, 1920x1080, 26,429fps, 11,4 Мбит/сек
Аудио: JAP: FLAC, 48.0 kHz, 2ch, 16 bit, 530 Kbps
Субтитры: ASS, отдельным файлом: Язык субтитров русский
#1 Перевод: Zafhos
...5397301 DVDRip
* Чтобы смотреть с озвучкой, необходимо из папки Rus sound переписать файлы в папку, где находятся видеофайлы. Далее, следует запустить плеер и переключиться на mka-дорожку. Подробное описание здесь
* Чтобы смотреть 10-битное видео (10bit), необходимо, исходя из ваших предпочтений используемого проигрывателя, воспользоваться
этой инструкцией.
* Чтобы смотреть с субтитрами, необходимо из папки Rus subs переписать файлы в папку, где находятся видеофайлы. В большинстве плееров, одноимённые субтитры подключатся автоматически.
Общее
Уникальный идентификатор : 213183554669632106817913117595613254515 (0xA061A8BEA38226451FEC66192913D373)
Полное имя : E:\раздачи\[ReinForce] Mitsuami no Kamisama [BDRip 1920x1080 x264 FLAC]\[ReinForce] Mitsuami no Kamisama [BDRip 1920x1080 x264 FLAC].mkv
Формат : Matroska
Версия формата : Version 4 / Version 2
Размер файла : 2,34 Гбайт
Продолжительность : 28 м. 8 с.
Режим общего битрейта : Переменный
Общий поток : 11,9 Мбит/сек
Дата кодирования : UTC 2017-10-10 18:47:41
Программа кодирования : mkvmerge v9.6.0 ('Slave To Your Mind') 64bit
Библиотека кодирования : libebml v1.3.4 + libmatroska v1.4.8

Видео
Идентификатор : 1
Формат : AVC
Формат/Информация : Advanced Video Codec
Профиль формата : [email protected]
Настройки формата : CABAC / 4 Ref Frames
Параметр CABAC формата : Да
Параметр RefFrames формата : 4 кадра
Идентификатор кодека : V_MPEG4/ISO/AVC
Продолжительность : 28 м. 8 с.
Битрейт : 11,4 Мбит/сек
Ширина : 1920 пикселей
Высота : 1080 пикселей
Соотношение сторон : 16:9
Режим частоты кадров : Переменный
Частота кадров : 26,429 кадров/сек
Частота кадров в оригинале : 29,970 (30000/1001) кадров/сек
Цветовое пространство : YUV
Субдискретизация насыщенности : 4:2:0
Битовая глубина : 8 бит
Тип развёртки : Прогрессивная
Бит/(Пиксели*Кадры) : 0.207
Размер потока : 2,24 Гбайт (96%)
Библиотека кодирования : x264 core 152
Настройки программы : cabac=1 / ref=4 / deblock=1:-2:-2 / analyse=0x3:0x113 / me=umh / subme=9 / psy=1 / psy_rd=0.70:0.00 / mixed_ref=0 / me_range=32 / chroma_me=1 / trellis=2 / 8x8dct=1 / cqm=0 / deadzone=21,11 / fast_pskip=1 / chroma_qp_offset=-2 / threads=16 / lookahead_threads=2 / sliced_threads=0 / nr=0 / decimate=1 / interlaced=0 / bluray_compat=0 / constrained_intra=0 / bframes=9 / b_pyramid=2 / b_adapt=2 / b_bias=0 / direct=3 / weightb=1 / open_gop=0 / weightp=2 / keyint=250 / keyint_min=23 / scenecut=40 / intra_refresh=0 / rc_lookahead=40 / rc=crf / mbtree=1 / crf=16.0 / qcomp=0.70 / qpmin=10 / qpmax=20 / qpstep=4 / ip_ratio=1.40 / aq=1:1.00
Default : Да
Forced : Нет

Аудио
Идентификатор : 2
Формат : FLAC
Формат/Информация : Free Lossless Audio Codec
Идентификатор кодека : A_FLAC
Продолжительность : 28 м. 5 с.
Вид битрейта : Переменный
Битрейт : 530 Кбит/сек
Каналы : 2 канала
Расположение каналов : Front: L R
Частота : 48,0 КГц
Частота кадров : 41,667 кадра/сек (1152 SPF)
Битовая глубина : 16 бит
Размер потока : 107 Мбайт (4%)
Библиотека кодирования : libFLAC 1.3.2 (UTC 2017-01-01)
Язык : Japanese
Default : Да
Forced : Нет


Трекер:  [ 08-Июн-2018 17:30 ]

  

Скачать .torrent

Размер .torrent файла 12 KB


Размер: 2.34 GB
Хэш (hash) релиза: 0175ddafc8ce963c16e21278f365b514f0b07461
Подписка на обновления:

Торренты, похожие на Богиня с косичками Mitsuami no Kamisama скачать торрент

Форум Название Автор Размер S L Добавлен
Аниме | Rips ·· Богиня с косичками / Mitsuami no Kamisama / Pigtails (Итадзу Ёсими) [Movie] [Без хардсаба] [RUS(int), JAP+SUB] [2015, повседневность, драма, DVDRip] Galfimbul 444407197424 MB 0 0 1493743689

19:48

2-Май-17

Аниме | Rips ·· Богиня с косичками / Mitsuami no Kamisama / Pigtails (Итадзу Ёсими) [Movie] [Без хардсаба] [JAP+SUB] [2015, повседневность, драма, DVDRip] Galfimbul 404135100385 MB 0 0 1493047694

18:28

24-Апр-17

Еще никто не оставлял запись к записи скачать торрент Богиня с косичками Mitsuami no Kamisama . Будь первым!

!Обратная связь