Share on Google+ | Hungarian Literature | Other Torrents

Скачать через торрент Храбрейшие воины Bravest Warriors Фильм бесплатно в хорошем качестве torrent

Скачивайте на UnionPeer.org фильмы через торрент без регистрации. Новинки кино в хорошем качестве через торрент. На UnionPeer.org можно скачать через торрент фильмы 2014 и 2015 годов. Самые новые фильмы.

Скачать торрент Храбрейшие воины Bravest Warriors бесплатно через .torrent фильм мультфильм сериал

Статистика раздачи
Размер:  1.89 GB   |    Зарегистрирован:  15 дней   |    .torrent скачан:  14 раз   |   
Раздают:  1  
   
загрузка...
 
Автор Сообщение

Galfimbul

avatar Galfimbul


Храбрейшие воины / Bravest Warriors

Страна: Соединенные Штаты
Жанр: Мультфильм
Продолжительность серии: 2:37:53
Год выпуска: 2018
Перевод: Отсутствует
Перевод 2: Отсутствует
Перевод 3: Отсутствует
Русские субтитры: нет

Режиссёр: Мультфильм Похмелье/Cartoon Hangover
Описание: Храбрейшие воины - это американская анимированная веб-сериал, созданный в 3085 году, и следующие четыре подростковых героя для найма, которые пробиваются сквозь вселенную, чтобы спасти очаровательных инопланетян и их миров, используя силу своих эмоций.

Качество: WEBRip
Формат: MP4
Видео: AVC, 1080p, 30fps, 283kb/s
Аудио: AAC, 44.1kHz, 2 channels, 254 kb/s
Субтитры: none

---------------------------------------------------------------------------------------------
|
| Bravest.Warriors.S04E11-24.WEBRip.1080p.AAC.H264-DrDreegs
|
| SOURCE..................: WEBRip
| FORMAT..................: MP4 (MPEG-4), AAC 254 kb/s 44.1kHz
| SIZE....................: 1.89 GB total | 220-310 MB per episode range
| DURATION................: 2h 37mn 53s total | 22mn 33s average
| LANGUAGE................: English
| EPISODES................: Numbered (11-24)
| IMDB....................: http://www.imdb.com/title/tt2474952/
---------------------------------------------------------------------------------------------
GeneralComplete name : C:\Users\user\Desktop\Bravest.Warriors.S04E11-24.1080p.WEB.x264-DrDreegs\Bravest.Warriors.S04E11&12.1080p.WEB.x264-DrDreegs.mp4Format : MPEG-4Format profile : Base Media / Version 2Codec ID : mp42 (isom/mp42)File size : 248 MiBDuration : 22 min 33 sOverall bit rate mode : VariableOverall bit rate : 1 539 kb/sEncoded date : UTC 2018-06-06 20:55:32Tagged date : UTC 2018-06-06 20:55:32

VideoID : 1Format : AVCFormat/Info : Advanced Video CodecFormat profile : [email protected] settings : CABAC / 3 Ref FramesFormat settings, CABAC : YesFormat settings, RefFrames : 3 framesCodec ID : avc1Codec ID/Info : Advanced Video CodingDuration : 22 min 33 sBit rate : 1 283 kb/sWidth : 1 920 pixelsHeight : 1 080 pixelsDisplay aspect ratio : 16:9Frame rate mode : ConstantFrame rate : 30.000 FPSStandard : NTSCColor space : YUVChroma subsampling : 4:2:0Bit depth : 8 bitsScan type : ProgressiveBits/(Pixel*Frame) : 0.021Stream size : 207 MiB (83%)Language : EnglishEncoded date : UTC 2018-06-06 20:55:32Tagged date : UTC 2018-06-06 20:55:32Color range : Limited

AudioID : 2Format : AACFormat/Info : Advanced Audio CodecFormat profile : LCCodec ID : mp4a-40-2Duration : 22 min 33 sBit rate mode : VariableBit rate : 254 kb/sMaximum bit rate : 418 kb/sChannel(s) : 2 channelsChannel positions : Front: L RSampling rate : 44.1 kHzFrame rate : 43.066 FPS (1024 SPF)Compression mode : LossyStream size : 40.9 MiB (16%)Language : EnglishEncoded date : UTC 2018-06-06 20:55:32Tagged date : UTC 2018-06-06 20:55:32
Предыдущие и альтернативные раздачи

Трекер:  [ 07-Июн-2018 19:24 ]

  

Скачать .torrent

Размер .torrent файла 39 KB


Размер: 1.89 GB
Хэш (hash) релиза: 75745f0dc178f49a56ac5041fa260ea2f5e7903c
Подписка на обновления:

Еще никто не оставлял запись к записи скачать торрент Храбрейшие воины Bravest Warriors . Будь первым!

!Обратная связь