League of Legends Client 8.19 | Man Up – Cose Da Uomini Serie TV Streaming Download | HDRip Fetish Factory

Скачать через торрент Просто так! Just Because! бесплатно Аниме Все серии на русском torrent

Статистика раздачи
Размер:  11.93 GB   |    Зарегистрирован:  4 месяца 14 дней   |    .torrent скачан:  26 раз   |   
Раздают:  1  
   
загрузка...
 
Автор Сообщение

Galfimbul

avatar Galfimbul


Просто так! / Just Because!
Страна: Япония
Год выпуска: 2017
Жанр: романтика, повседневность, школа
Тип: TV
Продолжительность: 12 эп. по 25 мин.
Режиссер: Кобаяси Ацуси
Студия: Pine Jam
Описание: Эйта Идзуми приезжает в Камакуру, где не был четыре года: когда-то его отца перевели по работе, а теперь семья вернулась в родной город. До выпускного остается всего один триместр, а потом начнется взрослая жизнь, с которой нужно определиться именно сейчас. В новой школе, где Эйте предстоит доучиваться, он встречает Сому Харуто – тот был его лучшим другом, но на расстоянии общение быстро прервалось. В этой же школе, как оказалось, учится и Мио Нацумэ, их бывшая одноклассница и давняя безответная любовь Эйты. Харуто тоже страдает от безответной любви – молчаливая Хадзуки Морикава из школьного оркестра совершенно не обращает на него внимания. Между тем приезд загадочного новичка начинает вызывать интерес. Выяснить, кто это такой, берется Эна Комия, глава школьного фотокружка, который, несмотря на все ее протесты, вот-вот закроют. Эна надеется, что удачное фото Эйты, сделанное практически случайно, поможет выиграть конкурс и спасти кружок.© laci, World Art
Качество: BDRip
Тип релиза: Без хардсаба
Формат видео: MKV
Наличие линковки: Нет
Релиз/Автор рипа: Jensen [Beatrice-Raws]
Видео: MPEG4(х264); 10 bit; 1920x1080; ~4700 Кбит/сек; 23.976 кадра/сек
Аудио JAP: FLAC; 48kHz; 2ch; ~1300 Кбит/сек
Субтитры RUS: ASS; внешние; Перевод: laci
GeneralUnique ID : 189871691751137767628735525685696069154 (0x8ED7F52A1721CA6099582C3BF6C6FE22)Complete name :\Just Because! [BDRip] [1080p]\[Beatrice-Raws] Just Because! 01 [BDRip 1920x1080 x264 FLAC].mkvFormat : MatroskaFormat version : Version 4 / Version 2File size : 890 MiBDuration : 23 min 50 sOverall bit rate mode : VariableOverall bit rate : 5 222 kb/sEncoded date : UTC 2018-02-13 18:23:53Writing application : mkvmerge v17.0.0 ('Be Ur Friend') 64-bitWriting library : libebml v1.3.5 + libmatroska v1.4.8

VideoID : 1Format : AVCFormat/Info : Advanced Video CodecFormat profile : High [email protected] settings : CABAC / 4 Ref FramesFormat settings, CABAC : YesFormat settings, ReFrames : 4 framesCodec ID : V_MPEG4/ISO/AVCDuration : 23 min 50 sBit rate : 3 909 kb/sWidth : 1 920 pixelsHeight : 1 080 pixelsDisplay aspect ratio : 16:9Frame rate mode : ConstantFrame rate : 23.976 (24000/1001) FPSColor space : YUVChroma subsampling : 4:2:0Bit depth : 10 bitsScan type : ProgressiveBits/(Pixel*Frame) : 0.079Stream size : 666 MiB (75%)Title : BDrip by JensenWriting library : x264 core 152 r2851 ba24899 (DJATOM's build)Encoding settings : cabac=1 / ref=4 / deblock=1:1:-1 / analyse=0x3:0x113 / me=umh / subme=9 / psy=1 / psy_rd=1.00:0.00 / mixed_ref=1 / me_range=32 / chroma_me=1 / trellis=2 / 8x8dct=1 / cqm=0 / deadzone=21,11 / fast_pskip=1 / chroma_qp_offset=-2 / threads=34 / lookahead_threads=5 / sliced_threads=0 / nr=0 / decimate=1 / interlaced=0 / bluray_compat=0 / constrained_intra=0 / bframes=9 / b_pyramid=2 / b_adapt=2 / b_bias=0 / direct=1 / weightb=1 / open_gop=0 / weightp=2 / keyint=240 / keyint_min=23 / scenecut=40 / intra_refresh=0 / rc=crf / mbtree=0 / crf=15.0000 / qcomp=0.72 / qpmin=0 / qpmax=81 / qpstep=4 / ip_ratio=1.40 / pb_ratio=1.30 / aq=1:0.85Language : JapaneseDefault : YesForced : NoColor range : LimitedColor primaries : BT.709Transfer characteristics : BT.709Matrix coefficients : BT.709

AudioID : 2Format : FLACFormat/Info : Free Lossless Audio CodecCodec ID : A_FLACDuration : 23 min 50 sBit rate mode : VariableBit rate : 1 311 kb/sChannel(s) : 2 channelsChannel positions : Front: L RSampling rate : 48.0 kHzFrame rate : 11.719 FPS (4096 SPF)Bit depth : 24 bitsStream size : 223 MiB (25%)Writing library : libFLAC 1.3.1 (UTC 2014-11-25)Language : JapaneseDefault : YesForced : No

Menu00:00:00.000 : en:Avant00:02:12.006 : en:Part A00:12:49.059 : en:Part B

...5473622
...5462449
...5498160
BDRip, 1080p

...5499681
Наличие всех 12-ти серий

01. On Your Marks!
02. Question
03. Andante
04. Full Swing
05. Rolling Stones
06. Restart
07. Snow Day
08. High Dynamic Range
09. Answer
10. Childhood`s End
11. Roundabout
12. Get Set, Go!


Трекер:  [ 07-Июн-2018 17:30 ]

  

Скачать .torrent

Размер .torrent файла 32 KB


Размер: 11.93 GB
Хэш (hash) релиза: 58438dd42eff716d94072ea60213b8187110f09e
Подписка на обновления:

Еще никто не оставлял запись к записи скачать торрент Просто так! Just Because! . Будь первым!

!Обратная связь