7.9 The Ivory Game WEB-DLRip, 2016, Brazil, New movies, Historical, Documentary | Animation Cliquez pour regarder | Puppet Master: Axis Termination

Скачать через торрент Команда «Мстители» Avengers Assemble Фильм бесплатно в хорошем качестве torrent

Скачивайте на UnionPeer.org фильмы через торрент без регистрации. Новинки кино в хорошем качестве через торрент. На UnionPeer.org можно скачать через торрент фильмы 2014 и 2015 годов. Самые новые фильмы.

Скачать торрент Команда «Мстители» Avengers Assemble бесплатно через .torrent фильм мультфильм сериал

Статистика раздачи
Размер:  18.52 GB   |    Зарегистрирован:  15 дней   |    .torrent скачан:  45 раз   |   
Раздают:  1  
   
загрузка...
 
Автор Сообщение

Galfimbul

avatar Galfimbul


Команда «Мстители» / Avengers Assemble: Ultron Revolution

Страна: США
Жанр: мультсериал, экранизация комиксов, приключения
Продолжительность серии: 00:22:04
Год выпуска: 2016
Перевод: Профессиональный (дублированный)
Русские субтитры: нет

Режиссёр: Джефф Аллен, Эрик Радомски, Тим Элдред / Jeff Allen, Eric Radomski, Tim Eldred
Роли озвучивали: Роджер Крэйг Смит, Фред Татаскьор, Трой Бэйкер, Трэвис Уиллингэм, Бампер Робинсон, Адриан Пасдар, Лора Бэйли, Дэвид Кэй, Лайам О’Брайэн, Джеймс С. Мэтис III
Роли дублировали: Андрей Аверков, Андрей Пирог, Константин Панченко, Владимир Маслаков, Глеб Гаврилов, Ярослав Гейвандов, Варвара Шалагина, Максим Сергеев, Андрей Тенетко

Описание: Сериал воссоединит самую популярную команду супергероев: Железный Человек, Халк, Капитан Америка, Тор, Соколиный Глаз, Черная Вдова, а также новичок Сокол. Впервые в истории анимации команда соберется в таком составе. Ведомые Железным Человеком, герои тренируются и живут вместе в своей новой штаб-квартире в Башне Мстителей. Самый опасные злодеи планеты не имеют ни единого шанса, когда речь идет о Мстителях. Остановить Доктора Дума или отвоевать Асгард, защитить Нью-Йорк от армии Аттумы или победить вампиров Дракулы — Мстители должны работать в команде, чтобы победить.

Список серий:
01 Adapting to Change
02 The Ultimates
03 Saving Captain Rogers
04 Under Siege
05 The Thunderbolts
06 Thunderbolts Revealed
07 Into the Dark Dimension
08 Dehulked
09 Inhumans Among Us
10 The Inhuman Condition
11 Kids Are Alright
12 The Conqueror
13 Into The Future
14 Seeing Double
15 A Friend in Need
16 Captain Marvel
17 Panthers Rage
18 Ant-Man Makes It Big
19 The House of Zemo
20 U-Foes
21 Building the Perfect Weapon
22 World War Hulk
23 Civil War Part 1 The Fall of Attilan
24 Civil War Part 2 The Mighty Avengers
25 Civil War Part 3 The Drums of War
26 Civil War Part 4 Avengers Revolution

Семпл: http://multi-up.com/1200815

Качество: WEB-DL 720p
Формат: MKV
Видео: h264, 1280*720, 23.976fps, 4000 kbps
Аудио: AC3, rus, 48000 Hz, 2ch, 192 kbps
Аудио 2: AC3, eng, 48000 Hz, 6ch, 384 kbps
Субтитры: английские
GeneralUnique ID : 279197274445037830253096862436606542650 (0xD20B706A76962C1C6BFCAD05BB97033A)Format : MatroskaFormat version : Version 4 / Version 2File size : 725 MiBDuration : 22 min 3 sOverall bit rate : 4 593 kb/sEncoded date : UTC 2018-04-08 16:30:48Writing application : mkvmerge v20.0.0 ('I Am The Sun') 64-bitWriting library : libebml v1.3.5 + libmatroska v1.4.8

VideoID : 1Format : AVCFormat/Info : Advanced Video CodecFormat profile : [email protected] settings, CABAC : NoFormat settings, ReFrames : 2 framesCodec ID : V_MPEG4/ISO/AVCDuration : 22 min 3 sBit rate : 4 015 kb/sWidth : 1 280 pixelsHeight : 720 pixelsDisplay aspect ratio : 16:9Frame rate mode : ConstantFrame rate : 23.976 (24000/1001) FPSColor space : YUVChroma subsampling : 4:2:0Bit depth : 8 bitsScan type : ProgressiveBits/(Pixel*Frame) : 0.182Stream size : 633 MiB (87%)Title : H.264Default : YesForced : NoColor range : LimitedColor primaries : BT.709Transfer characteristics : BT.709Matrix coefficients : BT.709

Audio #1ID : 2Format : AC-3Format/Info : Audio Coding 3Mode extension : CM (complete main)Format settings, Endianness : BigCodec ID : A_AC3Duration : 22 min 3 sBit rate mode : ConstantBit rate : 192 kb/sChannel(s) : 2 channelsChannel positions : Front: L RSampling rate : 48.0 kHzFrame rate : 31.250 FPS (1536 spf)Bit depth : 16 bitsCompression mode : LossyStream size : 30.3 MiB (4%)Language : RussianDefault : YesForced : No

Audio #2ID : 3Format : AC-3Format/Info : Audio Coding 3Mode extension : CM (complete main)Format settings, Endianness : BigCodec ID : A_AC3Duration : 22 min 3 sBit rate mode : ConstantBit rate : 384 kb/sChannel(s) : 6 channelsChannel positions : Front: L C R, Side: L R, LFESampling rate : 48.0 kHzFrame rate : 31.250 FPS (1536 spf)Bit depth : 16 bitsCompression mode : LossyStream size : 60.6 MiB (8%)Title : DD5.1Language : EnglishDefault : NoForced : No

TextID : 4Format : UTF-8Codec ID : S_TEXT/UTF8Codec ID/Info : UTF-8 Plain TextDuration : 21 min 28 sBit rate : 71 b/sCount of elements : 429Stream size : 11.2 KiB (0%)Title : CCLanguage : EnglishDefault : NoForced : No
Предыдущие и альтернативные раздачи

Трекер:  [ 07-Июн-2018 00:24 ]

  

Скачать .torrent

Размер .torrent файла 96 KB


Размер: 18.52 GB
Хэш (hash) релиза: d76a17fe8fe69e09fed9ad36c4cf77c870fe050e
Подписка на обновления:

Еще никто не оставлял запись к записи скачать торрент Команда «Мстители» Avengers Assemble . Будь первым!

!Обратная связь