Médical | Season 4 Episode 21 | Running Man Episode 29

Скачать через торрент Простоквашино: Сезон дождей Фильм бесплатно в хорошем качестве torrent

Скачивайте на UnionPeer.org фильмы через торрент без регистрации. Новинки кино в хорошем качестве через торрент. На UnionPeer.org можно скачать через торрент фильмы 2014 и 2015 годов. Самые новые фильмы.

Скачать торрент Простоквашино: Сезон дождей бесплатно через .torrent фильм мультфильм сериал

Статистика раздачи
Размер:  243 MB   |    Зарегистрирован:  2 месяца 9 дней   |    .torrent скачан:  112 раз   |   
Раздают:  1  
   
загрузка...
 
Автор Сообщение

Galfimbul

avatar Galfimbul


Простоквашино: Сезон дождей

Год выхода: 2018
Жанр: Мультфильм, семейный

Режиссер: Михаил Солошенко

Роли озвучивали: Антон Табаков, Юлия Меньшова, Иван Охлобыстин, Гарик Сукачёв, Алексей Онежен

О мультфильме: Казалось, никакие бури внешнего мира не смогут поколебать привычный и размеренный ход деревенской жизни Простоквашино. Время как будто застыло. Все так же каждое утро Матроскин дегустирует свежее молоко, полученное от своей любимицы — коровы Мурки. Все так же Шарик проводит время в окрестных лесах, «фотоохотясь» на редкую дичь. Правда, теперь он научился выкладывать фотографии своей добычи в интернет. И все так же, при каждой возможности, их навещает Дядя Федор. И тогда они весело и дружно проводят время своей мужской компанией. И когда им уже стало казаться, что так будет всегда, внезапно все изменилось с появлением одной маленькой девочки, родной сестры Дяди Фёдора. И имя этой девочки — Вера Павловна.


Производство: Россия / Союзмультфильм
Продолжительность: 00:06:29
Перевод: Не требуется
Субтитры: Отсутствуют

Файл
Формат: MKV
Качество: WEB-DL 1080р

Видео: MPEG-4 AVC, 5036 Кбит/с, 1920x1080
Аудио: 48 kHz, AC3 Dolby Digital, 2/0 (L,R) ch, ~192 kbps
Общее
Уникальный идентификатор : 108648647852282464286894528482031511286 (0x51BCF7EB21F53418ED9473D1FAAD26F6)
Полное имя : Простоквашино “Сезон дождей“ - 3 серия.mkv
Формат : Matroska
Версия формата : Version 4 / Version 2
Размер файла : 243 Мбайт
Продолжительность : 6 м. 29 с.
Общий поток : 5229 Кбит/сек
Дата кодирования : UTC 2018-06-06 09:01:54
Программа кодирования : mkvmerge v23.0.0 ('The Bride Said No') 64-bit
Библиотека кодирования : libebml v1.3.6 + libmatroska v1.4.9

Видео
Идентификатор : 1
Формат : AVC
Формат/Информация : Advanced Video Codec
Профиль формата : [email protected]
Настройки формата : CABAC / 1 Ref Frames
Параметр CABAC формата : Да
Параметр RefFrames формата : 1 кадр
Идентификатор кодека : V_MPEG4/ISO/AVC
Продолжительность : 6 м. 29 с.
Битрейт : 5036 Кбит/сек
Ширина : 1920 пикселей
Высота : 1080 пикселей
Соотношение сторон : 16:9
Режим частоты кадров : Постоянный
Частота кадров : 25,000 кадров/сек
Цветовое пространство : YUV
Субдискретизация насыщенности : 4:2:0
Битовая глубина : 8 бит
Тип развёртки : Прогрессивная
Бит/(Пиксели*Кадры) : 0.097
Размер потока : 234 Мбайт (96%)
Default : Да
Forced : Нет

Аудио
Идентификатор : 2
Формат : AC-3
Формат/Информация : Audio Coding 3
Идентификатор кодека : A_AC3
Продолжительность : 6 м. 29 с.
Вид битрейта : Постоянный
Битрейт : 192 Кбит/сек
Каналы : 2 канала
Расположение каналов : Front: L R
Частота : 48,0 КГц
Частота кадров : 31,250 кадров/сек (1536 SPF)
Битовая глубина : 16 бит
Метод сжатия : С потерями
Размер потока : 8,93 Мбайт (4%)
Default : Да
Forced : Нет
Источник http://blator.org

Трекер:  [ 06-Июн-2018 12:30 ]

  

Скачать .torrent

Размер .torrent файла 19 KB


Размер: 243 MB
Хэш (hash) релиза: 3907c17a6ac8d0522fcac1a9eeb77cf8aec747dd
Подписка на обновления:

Еще никто не оставлял запись к записи скачать торрент Простоквашино: Сезон дождей . Будь первым!

!Обратная связь