Harsh Times | Krisha Fairchild | Pixellu SmartAlbums 2.1.6

Скачать через торрент Правильный ответ: «Кадо» Seikaisuru Kado бесплатно Аниме Все серии на русском torrent

Статистика раздачи
Размер:  16.52 GB   |    Зарегистрирован:  12 дней   |    .torrent скачан:  36 раз   |   
Раздают:  1  
   
загрузка...
 
Автор Сообщение

Galfimbul

avatar Galfimbul


Правильный ответ: «Кадо» / Seikaisuru Kado / KADO: The Right Answer

Продолжительность: 12 эп. по 24 мин.
Год выпуска: 2017
Страна: Япония
Тип: TV
Жанр: фантастика, приключения
Студия: Toei Animation
Описание: Коджиро Шиндо, талантливый посредник Министерства иностранных дел Японии, находился в аэропорту Ханэда, собираясь в деловую поездку, как вдруг в небе неожиданно возник гигантский куб, поглотивший взлетающий самолёт со всеми 252 пассажирами. И имя этому кубу — Кадо.
Покинув самолёт, люди увидели, как перед ними возник юноша, выглядевший как самый обычный человек, и заверил их, что никакая опасность им не угрожает. Коджиро попросил его немедленно представиться и объяснить, что происходит, после чего на большой экран внутри куба стали проецироваться изображения всего мира. В это же время на мобильные телефоны всех пассажиров пришло одинаковое сообщение, адресованное всем гражданам Японии: «Я, Яха-куй заШунина, настоящим уведомляю вас, что отныне буду вмешиваться во внутренние дела Японии».
И пока японское правительство выводит на сцену своего представителя — Сараку Цукай, Коджиро придётся стать посредником между человечеством и заШуниной, одним из анисоторонов — разумной формой жизни из Анисо, мира, лежащего за пределами космоса.
Получится ли у Шиндо выполнить свою работу? И какова цель этого таинственного юноши?
Качество: BDRip
Рип: [LowPower-Raws]
Тип релиза: без хардсаба, без линковки
Формат видео: MKV
Видео: MPEG4, 8 bit, 1920x1080, 23.976fps, 7564 Kbps
Аудио: JAP: FLAC, 48.0 kHz, 2ch, 16 bit, 633 Kbps
Субтитры: ass, отдельным файлом: Язык субтитров русский
#1 Перевод: YakuSub Studio
Редактор: Arashi-sama, Оформление: Nika_Elrik, Переводчик: Yukigawa
...5384959 HDTVRip
...5390275 WEBRip
* Чтобы смотреть с озвучкой, необходимо из папки Rus sound переписать файлы в папку, где находятся видеофайлы. Далее, следует запустить плеер и переключиться на mka-дорожку. Подробное описание здесь
* Чтобы смотреть 10-битное видео (10bit), необходимо, исходя из ваших предпочтений используемого проигрывателя, воспользоваться
этой инструкцией.
* Чтобы смотреть с субтитрами, необходимо из папки Rus subs переписать файлы в папку, где находятся видеофайлы. В большинстве плееров, одноимённые субтитры подключатся автоматически.
00. Ninovo
01. Yaha-kui zaShunina
02. Novo
03. Wam
04. Rotowa
05. Nanoka
06. Tetrok
07. Sansa
08. Talnel
09. Nanomis-hein
10. Towanosakiwa`
11. Wanoraru
12. Yukika
Общее
Уникальный идентификатор : 121263534573109356649709895822210912194 (0x5B3A81DA7551D8D1970629127E6E4FC2)
Полное имя : E:\раздачи\[LowPower-Raws] Seikaisuru-Kado [BDRip 1920x1080 x264 FLAC]\[LowPower-Raws] Seikaisuru-Kado - 00 (BD 1080P x264 FLAC).mkv
Формат : Matroska
Версия формата : Version 2
Размер файла : 1,36 Гбайт
Продолжительность : 23 м. 42 с.
Режим общего битрейта : Переменный
Общий поток : 8198 Кбит/сек
Дата кодирования : UTC 2018-05-15 01:01:58
Программа кодирования : mkvmerge v21.0.0 ('Tardigrades Will Inherit The Earth') 32-bit
Библиотека кодирования : libebml v1.3.5 + libmatroska v1.4.8

Видео
Идентификатор : 1
Формат : AVC
Формат/Информация : Advanced Video Codec
Профиль формата : [email protected]
Настройки формата : CABAC / 10 Ref Frames
Параметр CABAC формата : Да
Параметр RefFrames формата : 10 кадров
Идентификатор кодека : V_MPEG4/ISO/AVC
Продолжительность : 23 м. 42 с.
Битрейт : 7564 Кбит/сек
Ширина : 1920 пикселей
Высота : 1080 пикселей
Соотношение сторон : 16:9
Режим частоты кадров : Постоянный
Частота кадров : 23,976 (24000/1001) кадра/сек
Цветовое пространство : YUV
Субдискретизация насыщенности : 4:2:0
Битовая глубина : 8 бит
Тип развёртки : Прогрессивная
Бит/(Пиксели*Кадры) : 0.152
Размер потока : 1,25 Гбайт (92%)
Библиотека кодирования : x264 core 152 r2851+45 9658d1a 7mod [[email protected] X86_64]
Настройки программы : cabac=1 / ref=10 / deblock=1:0:0 / analyse=0x3:0x113 / me=umh / subme=9 / psy=1 / fade_compensate=0.00 / psy_rd=0.80:0.25 / mixed_ref=1 / me_range=32 / chroma_me=1 / trellis=1 / 8x8dct=1 / cqm=0 / deadzone=21,11 / fast_pskip=0 / chroma_qp_offset=-4 / threads=12 / lookahead_threads=1 / sliced_threads=0 / nr=0 / decimate=1 / interlaced=0 / bluray_compat=0 / constrained_intra=0 / fgo=0 / bframes=8 / b_pyramid=2 / b_adapt=1 / b_bias=0 / direct=1 / weightb=1 / open_gop=0 / weightp=2 / keyint=250 / keyint_min=23 / scenecut=40 / intra_refresh=0 / rc_lookahead=70 / rc=crf / mbtree=1 / crf=17.0000 / qcomp=0.60 / qpmin=0:0:0 / qpmax=69:69:69 / qpstep=4 / ip_ratio=1.40 / aq=3:0.80 / aq-sensitivity=10.00 / aq-factor=1.00:1.00:1.00 / aq2=0 / aq3=0
Default : Да
Forced : Нет

Аудио
Идентификатор : 2
Формат : FLAC
Формат/Информация : Free Lossless Audio Codec
Идентификатор кодека : A_FLAC
Продолжительность : 23 м. 42 с.
Вид битрейта : Переменный
Битрейт : 633 Кбит/сек
Каналы : 2 канала
Расположение каналов : Front: L R
Частота : 48,0 КГц
Частота кадров : 11,719 кадров/сек (4096 SPF)
Битовая глубина : 16 бит
Размер потока : 107 Мбайт (8%)
Библиотека кодирования : libFLAC 1.2.1 (UTC 2007-09-17)
Язык : Japanese
Default : Да
Forced : Нет


Трекер:  [ 06-Июн-2018 02:01 ]

  

Скачать .torrent

Размер .torrent файла 44 KB


Размер: 16.52 GB
Хэш (hash) релиза: f8a51988a571c980c9922a1dc86611431de95653
Подписка на обновления:

Торренты, похожие на Правильный ответ: «Кадо» Seikaisuru Kado скачать торрент

Форум Название Автор Размер S L Добавлен
Аниме | Rips ·· Правильный ответ: «Кадо» / Kado: The Right Answer / Seikaisuru Kado (Мурата Кадзуя) [TV] [1 из 12] [Без хардсаба] [RUS(int), JAP+SUB] [2017, приключения, фантастика, HDTVRip] [720p] Galfimbul 375381556358 MB 0 0 1492820716

03:25

22-Апр-17

Еще никто не оставлял запись к записи скачать торрент Правильный ответ: «Кадо» Seikaisuru Kado . Будь первым!

!Обратная связь