720p hon3y | Suisei no Gargantia | Allowed Image Hosts - UPDATED Feb 3rd 2018

Скачать через торрент Ми-ми-мишки Сезон: 1 - 2 Фильм бесплатно в хорошем качестве torrent

Скачивайте на UnionPeer.org фильмы через торрент без регистрации. Новинки кино в хорошем качестве через торрент. На UnionPeer.org можно скачать через торрент фильмы 2014 и 2015 годов. Самые новые фильмы.

Скачать торрент Ми-ми-мишки Сезон: 1 - 2 бесплатно через .torrent фильм мультфильм сериал

Статистика раздачи
Размер:  2.33 GB   |    Зарегистрирован:  16 дней   |    .torrent скачан:  27 раз   |   
Раздают:  1  
   
загрузка...
 
Автор Сообщение

Galfimbul

avatar Galfimbul


Ми-ми-мишки /

Страна: Россия
Жанр: Мультсериал
Продолжительность серии: 00:05:30
Год выпуска: 2015
Перевод: Не требуется
Русские субтитры: нет

Режиссёр: Алексей Миронов, Артур Толстобров
Роли озвучивали: Полина Кутепова, Наталия Медведева, Дарья Мазанова

Описание: Анимационный сериал «Ми-ми-мишки» в увлекательной форме рассказывает маленьким зрителям о забавных приключениях двух веселых медвежат – бурого медвежонка Иннокентия (Кешки) и его белого друга по имени Белая Тучка. Медвежата заняты своими обычными и не совсем обычными делами – собирают ягоды и грибы, ловят рыбу, читают книжки, летают на Луну. И неизбежно попадают в забавные, и, казалось бы, безвыходные ситуации. Но, несмотря на разные, пожалуй, даже диаметрально противоположные характеры, медвежата находят выход из любой ситуации, потому что их дружба сильнее любых проблем. Сериал расскажет детям о настоящей дружбе, умении ладить друг с другом. Научит уважать различные взгляды, любить природу и заботиться о ней, быть добрыми и веселыми.

Качество: WEBRip
Формат: AVI
Видео: XVID; 1815 Кбит/сек; 720х400 (16:9); 25,000 кадров/сек
Аудио: AC-3; 192 Кбит/се; 2 канала; 48,0 КГц
Субтитры: Нет
1. Звездная история
2. Фотоохота
3. Грибы и листья
4. Путешествие
5. Лучшая напоминалка
6. Несовременная еда
7. Борьба за урожай
8. Как лечить деревья
9. Домовой
10. Бессонница
11. Глобальное потепление
12. Огородники
13. Медовая история
14. Прогноз погоды
15. Змей на дереве
16. Финишная прямая
17. Пиратская история
18. Путешествие к звездам
19. Победители дракона
20. Экспедиция на север
21. Больше не надо
22. Лучшее место в мире
23. Цыпа и динозавры
24. Фокусы с разоблачением
25. Настоящий ниндзя
26. Нежданные гости
27. Необитаемый остров
28. Гол!
29. Мишка-невидимка
30. Следствие ведут мишки
ОбщееПолное имя : D:\закачки\Ми-ми-мишки [rutracker.org]\01. Ми-ми-мишки - Звездная история.aviФормат : AVIФормат/Информация : Audio Video InterleaveРазмер файла : 79,4 МбайтПродолжительность : 5 м. 30 с.Общий поток : 2017 Кбит/секПрограмма кодирования : VirtualDubMod 1.5.10.2 (build 2540/release)Библиотека кодирования : VirtualDubMod build 2540/release

ВидеоИдентификатор : 0Формат : MPEG-4 VisualПрофиль формата : Advanced [email protected]Настройки формата : BVOP1Параметр BVOP формата : 1Параметр QPel формата : НетПараметр GMC формата : Без точки переходаПараметр матрицы формата : Default (H.263)Идентификатор кодека : XVIDИдентификатор кодека/Подсказка : XviDПродолжительность : 5 м. 30 с.Битрейт : 1815 Кбит/секШирина : 720 пикселейВысота : 400 пикселейСоотношение сторон : 16:9Частота кадров : 25,000 кадров/секЦветовое пространство : YUVСубдискретизация насыщенности : 4:2:0Битовая глубина : 8 битТип развёртки : ПрогрессивнаяМетод сжатия : С потерямиБит/(Пиксели*Кадры) : 0.252Размер потока : 71,4 Мбайт (90%)Библиотека кодирования : XviD 1.2.1 (UTC 2008-12-04)

АудиоИдентификатор : 1Формат : AC-3Формат/Информация : Audio Coding 3Идентификатор кодека : 2000Продолжительность : 5 м. 30 с.Вид битрейта : ПостоянныйБитрейт : 192 Кбит/секКаналы : 2 каналаРасположение каналов : Front: L RЧастота : 48,0 КГцЧастота кадров : 31,250 кадров/сек (1536 SPF)Битовая глубина : 16 битМетод сжатия : С потерямиРазмер потока : 7,55 Мбайт (10%)Выравнивание : Соединение по промежуткамПродолжительность промежутка : 40 мс. (1,00 видеокадр)Время предзагрузки промежутка : 512 мс.ServiceKind/String : Complete Main
Раздача ведётся путём добавления новых выпусков. При каждом добавлении создётся новый торрент. Чтобы начать докачку новой серии, пользователям необходимо сделать следующее:
(1) остановить скачивание,
(2) удалить старый торрент у себя из клиента (старые серии удалять не надо),
(3) скачать новый торрент и запустить его у себя в клиенте вместо старого, при этом указать клиенту путь в старую папку куда и должно происходить скачивание новых серий.
Ваш клиент при этом должен произвести хеширование (проверку) старой папки (если не производит сам - помогите ему сделать это), и будет докачивать только те серии которых у вас ещё нет. Старые серии при этом не удаляются, а продолжают раздаваться!
Eсли вы уже удалили старые серии, то предотвратить повторную закачку старых серий можно, отжав галочку в соответсвующих местах при запуске нового торрента.
<div class="post-box-default">
<div class="post-box" style="border-color: #E1BC88;">сэмпл
</div>
</div>
<div class="post-box-default">
<div class="post-box" style="border-color: #E1BC88;">
</div>
</div>

Трекер:  [ 05-Июн-2018 20:24 ]

  

Скачать .torrent

Размер .torrent файла 14 KB


Размер: 2.33 GB
Хэш (hash) релиза: 2a19ecf2a11be0cef5a6a41351f777674efd56f6
Подписка на обновления:

Еще никто не оставлял запись к записи скачать торрент Ми-ми-мишки Сезон: 1 - 2 . Будь первым!

!Обратная связь