Schmitz in the City | Sarah Danser | Still On My Mind Gdh

Скачать через торрент Клим Сезон: 1 Фильм бесплатно в хорошем качестве torrent

Скачивайте на UnionPeer.org фильмы через торрент без регистрации. Новинки кино в хорошем качестве через торрент. На UnionPeer.org можно скачать через торрент фильмы 2014 и 2015 годов. Самые новые фильмы.

Скачать торрент Клим Сезон: 1 бесплатно через .torrent фильм мультфильм сериал

Статистика раздачи
Размер:  4.46 GB   |    Зарегистрирован:  16 дней   |    .torrent скачан:  83 раза   |   
Раздают:  1  
   
загрузка...
 
Автор Сообщение

Galfimbul

avatar Galfimbul


Клим
> Год выпуска: 2015
> Производство: «Продюсерский центр "Среда"»
> Жанр: Полицейская драма
> Продолжительность: ~ 47 мин.
> Субтитры: Отсутствуют
> Режиссер: Карен Оганесян
> В ролях: Константин Лавроненко, Дарья Мингазетдинова, Анна Вартанян, Сергей Шнырёв, Павел Чинарёв, Татьяна Колганова, Сергей Кудрявцев, Олег Рязанцев, Иван Николаев (II), Виталий Коваленко, Никита Панфилов, Антон Багров, Олег Фёдоров (III), Алексей Фокин, Светлана Цвиченко, Валерия Кожевникова, Рина Гришина, Марина Дуксова, Денис Старков, Владимир Чернышов, Григорий Чабан, Александр Большаков, Алёна Бондарчук (II), Наталья Виноградова, Евгений Добряков, Александр Завьялов, Светлана Киреева, Александр Удалов
и др.
> Описание: Российская версия культового английского сериала «Лютер».
Клим Рощин – полицейский с обостренным чувством справедливости и долга. Методы его работы уникальны. Клим не использует оружия. В его арсенале дедукция, интуиция, провокационные допросы и… знание повадок хищников. До службы в уголовном розыске Клим был ученым-этологом: изучал жизнь волков, жил в стае. Теперь свое феноменальное «звериное» чутье Клим применяет для розыска самых опасных и жестоких убийц. Но и сам Клим – не менее опасен, чем все те, за кем он охотится…
> Релиз группы
>
> Семпл
> Кино-Театр
> Качество:HDTVRip [Источник HDTV 1080i MediaClub]
> Формат: AVI
> Видео кодек: XviD
> Аудио кодек: AC3
> Видео: 720x400 (1.80:1), 25 fps, XviD build 73 ~1497 kbps avg, 0.21 bit/pixel
> Аудио: 48 kHz, AC3 Dolby Digital, 2/0 (L,R) ch, ~192.00 kbps avg
General
Complete name                       : D:\Клим\Klim.s01e01.2015.HDTVRip.RG.Russkie.serialy.avi
Format                              : AVI
Format/Info                         : Audio Video Interleave
File size                           : 627 MiB
Duration                            : 51mn 35s
Overall bit rate                    : 1 700 Kbps
Writing application                 : VirtualDubMod 1.5.10.3 | www.virtualdub-fr.org || (build 2550/release)
Writing library                     : VirtualDubMod build 2550/release

Video
ID                                  : 0
Format                              : MPEG-4 Visual
Format profile                      : Advanced [email protected]
Format settings, BVOP               : 2
Format settings, QPel               : No
Format settings, GMC                : No warppoints
Format settings, Matrix             : Custom
Codec ID                            : XVID
Codec ID/Hint                       : XviD
Duration                            : 51mn 35s
Bit rate                            : 1 498 Kbps
Width                               : 720 pixels
Height                              : 400 pixels
Display aspect ratio                : 16:9
Frame rate                          : 25.000 fps
Color space                         : YUV
Chroma subsampling                  : 4:2:0
Bit depth                           : 8 bits
Scan type                           : Progressive
Compression mode                    : Lossy
Bits/(Pixel*Frame)                  : 0.208
Stream size                         : 553 MiB (88%)
Writing library                     : XviD 73

Audio
ID                                  : 1
Format                              : AC-3
Format/Info                         : Audio Coding 3
Mode extension                      : CM (complete main)
Format settings, Endianness         : Big
Codec ID                            : 2000
Duration                            : 51mn 35s
Bit rate mode                       : Constant
Bit rate                            : 192 Kbps
Channel(s)                          : 2 channels
Channel positions                   : Front: L R
Sampling rate                       : 48.0 KHz
Bit depth                           : 16 bits
Compression mode                    : Lossy
Stream size                         : 70.8 MiB (11%)
Alignment                           : Split accross interleaves
Interleave, duration                : 40 ms (1.00 video frame)
Interleave, preload duration        : 500 ms
<div class="sp-wrap">
<div class="sp-head folded">Сравнение
</div>
<div class="sp-body">Сравнение с этой раздачей ...5166900
http://screenshotcomparison.com/comparison/114264/picture:7</div>
</div>

Трекер:  [ 05-Июн-2018 15:42 ]

  

Скачать .torrent

Размер .torrent файла 23 KB


Размер: 4.46 GB
Хэш (hash) релиза: d14ef2fa80a74663db577adfc1a881a11063f549
Подписка на обновления:

Еще никто не оставлял запись к записи скачать торрент Клим Сезон: 1 . Будь первым!

!Обратная связь