Gringo 2018 - view now - | Mehcad Brooks | 00_10_10_10_10_10_10_10_10_seconds_flat_-_awake-2005-cmg.m3u

Скачать через торрент МосГаз Сезон: 1 Фильм бесплатно в хорошем качестве torrent

Скачивайте на UnionPeer.org фильмы через торрент без регистрации. Новинки кино в хорошем качестве через торрент. На UnionPeer.org можно скачать через торрент фильмы 2014 и 2015 годов. Самые новые фильмы.

Скачать торрент МосГаз Сезон: 1 бесплатно через .torrent фильм мультфильм сериал

Статистика раздачи
Размер:  6.24 GB   |    Зарегистрирован:  14 дней   |    .torrent скачан:  39 раз   |   
Раздают:  1  
   
загрузка...
 
Автор Сообщение

Galfimbul

avatar Galfimbul


МосГаз
> Год выпуска: 2012
> Производство: «Студия Русский проект»
> Жанр: Детектив, криминальный фильм
> Продолжительность: 1,8 серии ~ 01:21:49, 2.3.4.5.6.7 серии ~ 00:51:00
> Субтитры: Отсутствуют
> Режиссер: Андрей Малюков
> В ролях: Андрей Смоляков, Марина Александрова, Максим Матвеев, Юрий Чурсин, Светлана Ходченкова, Агния Кузнецова, Екатерина Климова, Александр Дробитько, Даниэла Стоянович, Анатолий Кузнецов, Роман Мадянов, Алексей Бардуков, Юрий Тарасов, Анатолий Гущин, Владимир Юматов, Евгения Дмитриева, Владислав Ветров, Игорь Савочкин, Луиза Мосендз, Вадим Андреев, Борис Каморзин, Алефтина Евдокимова, Раиса Рязанова, Алина Ольшанская, Даниил Кокин, Анастасия Шалонько, Сергей Лосев, Виталий Ленский, Людмила Долгорукова, Марина Иванова, Евгения Пресникова, Александр Мякушко, Сергей Бачурский, Максим Виноградов (II), Вячеслав Чепурченко, Сергей Карасевич, Денис Бродский, Олег Васильков, Алексей Ошурков
и др.
> Описание: Создатели фильма рассказывают о поисках первого в истории СССР серийного убийцы в Москве времён хрущевской оттепели.
1962 год. Москва. Преступник по кличке Мосгаз, стал первым официально признанным серийным маньяком в Советском Союзе. Его кровавые деяния навсегда вошли в историю криминалистики, а его прозвищем мамы пугали детей.
Представляясь работником Мосгаза, маньяк свободно проникал в квартиры людей, выбирал жертву и оценивал благосостояние хозяев квартир. Позже следствие докажет причастность Мосгаза к шести убийствам, в том числе на его совести четыре смерти несовершеннолетних граждан СССР.
Он убивал с легкостью, словно играл роль.
По приказу Хрущева на поимку серийного убийцы отводилось две недели. Приказ был выполнен в срок.
Что двигало преступником: жажда наживы, несчастная любовь или болезненное стремление убивать?
> Релиз группы
>
> Семпл
> Кино-Театр
> Качество:HDTVRip [Источник HDTV 1080i MediaClub]
> Формат: AVI
> Видео кодек: XviD
> Аудио кодек: AC3
> Видео: 720x400 (1.80:1), 25 fps, XviD build 73 ~1499 kbps avg, 0.21 bit/pixel
> Аудио: 48 kHz, AC3 Dolby Digital, 3/2 (L,C,R,l,r) + LFE ch, ~384.00 kbps avg
General
Complete name                       : E:\МосГаз\MosGaz.s01e01.2012.HDTVRip.RG.Russkie.serialy.avi
Format                              : AVI
Format/Info                         : Audio Video Interleave
File size                           : 1.08 GiB
Duration                            : 1h 21mn
Overall bit rate                    : 1 894 Kbps
Writing application                 : VirtualDubMod 1.5.10.3 | www.virtualdub-fr.org || (build 2550/release)
Writing library                     : VirtualDubMod build 2550/release

Video
ID                                  : 0
Format                              : MPEG-4 Visual
Format profile                      : Advanced [email protected]
Format settings, BVOP               : 2
Format settings, QPel               : No
Format settings, GMC                : No warppoints
Format settings, Matrix             : Custom
Codec ID                            : XVID
Codec ID/Hint                       : XviD
Duration                            : 1h 21mn
Bit rate                            : 1 500 Kbps
Width                               : 720 pixels
Height                              : 400 pixels
Display aspect ratio                : 16:9
Frame rate                          : 25.000 fps
Color space                         : YUV
Chroma subsampling                  : 4:2:0
Bit depth                           : 8 bits
Scan type                           : Progressive
Compression mode                    : Lossy
Bits/(Pixel*Frame)                  : 0.208
Stream size                         : 878 MiB (79%)
Writing library                     : XviD 73

Audio
ID                                  : 1
Format                              : AC-3
Format/Info                         : Audio Coding 3
Mode extension                      : CM (complete main)
Format settings, Endianness         : Big
Codec ID                            : 2000
Duration                            : 1h 21mn
Bit rate mode                       : Constant
Bit rate                            : 384 Kbps
Channel(s)                          : 6 channels
Channel positions                   : Front: L C R, Side: L R, LFE
Sampling rate                       : 48.0 KHz
Bit depth                           : 16 bits
Compression mode                    : Lossy
Stream size                         : 225 MiB (20%)
Alignment                           : Split accross interleaves
Interleave, duration                : 40 ms (1.00 video frame)
Interleave, preload duration        : 500 ms
<div class="sp-wrap">
<div class="sp-head folded">Сравнение
</div>
<div class="sp-body">Сравнение с этой раздачей ...4919082
http://screenshotcomparison.com/comparison/114474/picture:7
И с этой ...4233612
http://screenshotcomparison.com/comparison/114470/picture:7</div>
</div>

Трекер:  [ 05-Июн-2018 15:42 ]

  

Скачать .torrent

Размер .torrent файла 32 KB


Размер: 6.24 GB
Хэш (hash) релиза: 5b837c5c9ab6ebbf82edba8391dc2c5a749bcccc
Подписка на обновления:

Еще никто не оставлял запись к записи скачать торрент МосГаз Сезон: 1 . Будь первым!

!Обратная связь