One Piece Film: Strong World Episode 0 (2010) | MICROSOFT Office PRO Plus 2016 v16 0 4266 1003 RTM + Activator | 123Movies - Watch Movies Online For Free - 0mediamovie123.stream

Скачать через торрент Незабудки Сезон: 1 Фильм бесплатно в хорошем качестве torrent

Скачивайте на UnionPeer.org фильмы через торрент без регистрации. Новинки кино в хорошем качестве через торрент. На UnionPeer.org можно скачать через торрент фильмы 2014 и 2015 годов. Самые новые фильмы.

Скачать торрент Незабудки Сезон: 1 бесплатно через .torrent фильм мультфильм сериал

Статистика раздачи
Размер:  2.14 GB   |    Зарегистрирован:  14 дней   |    .torrent скачан:  33 раза   |   
Раздают:  1  
   
загрузка...
 
Автор Сообщение

Galfimbul

avatar Galfimbul


Незабудки
> Год выпуска: 2013> Производство: «Всемирные Русские Студии»> Жанр: Мелодрама> Продолжительность: ~ 45 мин.> Субтитры: Отсутствуют
> Режиссер: Юрий Павлов (II)
> В ролях: Елена Шилова (II), Антон Пампушный, Артём Крестников, Наталия Солдатова, Александр Арсентьев, Екатерина Травова, Ирина Бразговка, Наталья Батрак, Екатерина Порубель, Дарья Иванова, Юлия Чебакова, Сергей Паршин, Светлана Рябова, Вадим Померанцев, Ирина Савицкова, Юрий Внуков, Михаил Калгин, Тарас Епифанцев, Олег Тополянский, Ирис Иванова, Александр Никольский (II), Никита Померанцев, Геннадий Юдин (II), Валентина Смольникова, Иван Мамонов, Валерий Ненашев, Александр Сайко, Ян Воробьёв, Евгений Горошко и др.
> Описание: Алена - юная наивная девушка из маленького городка - недавно окончила школу и готовится к экзаменам в московскую консерваторию.

Однако все планы рушит первая и, к несчастью, безответная любовь: Алена теряет голову от офицера Артема. Ему же совсем не до чувств едва знакомой девушки – у него своя жизнь и своя любовная драма..

Вероятно, героиня уехала бы в Москву и начала всё заново, если бы Артема, капитана с безупречной репутацией, по ложному доносу не отправили в тюрьму..

Узнав об этом, романтичная Алена отправляется в колонию-поселение за любимым, которому она вовсе не нужна…



> Релиз группы
> > Семпл > Кино-Театр
> Качество:HDTVRip [Источник HDTV 1080i от.Nikolspup]> Формат: AVI> Видео кодек: XviD> Аудио кодек: AC3> Видео: 720x400 (1.80:1), 25 fps, XviD build 73 ~1500 kbps avg, 0.21 bit/pixel> Аудио: 48 kHz, AC3 Dolby Digital, 2/0 (L,R) ch, ~192.00 kbps avg
General
Complete name                       : D:\Незабудки\Nezabudki.s01e01.2013.HDTVRip.RG.Russkie.serialy.avi
Format                              : AVI
Format/Info                         : Audio Video Interleave
File size                           : 1.09 GiB
Duration                            : 1h 31mn
Overall bit rate                    : 1 702 Kbps
Writing application                 : VirtualDubMod 1.5.10.3 | www.virtualdub-fr.org || (build 2550/release)
Writing library                     : VirtualDubMod build 2550/release

Video
ID                                  : 0
Format                              : MPEG-4 Visual
Format profile                      : Advanced [email protected]
Format settings, BVOP               : 2
Format settings, QPel               : No
Format settings, GMC                : No warppoints
Format settings, Matrix             : Custom
Codec ID                            : XVID
Codec ID/Hint                       : XviD
Duration                            : 1h 31mn
Bit rate                            : 1 500 Kbps
Width                               : 720 pixels
Height                              : 400 pixels
Display aspect ratio                : 16:9
Frame rate                          : 25.000 fps
Color space                         : YUV
Chroma subsampling                  : 4:2:0
Bit depth                           : 8 bits
Scan type                           : Progressive
Compression mode                    : Lossy
Bits/(Pixel*Frame)                  : 0.208
Stream size                         : 982 MiB (88%)
Writing library                     : XviD 73

Audio
ID                                  : 1
Format                              : AC-3
Format/Info                         : Audio Coding 3
Mode extension                      : CM (complete main)
Format settings, Endianness         : Big
Codec ID                            : 2000
Duration                            : 1h 31mn
Bit rate mode                       : Constant
Bit rate                            : 192 Kbps
Channel(s)                          : 2 channels
Channel positions                   : Front: L R
Sampling rate                       : 48.0 KHz
Bit depth                           : 16 bits
Compression mode                    : Lossy
Stream size                         : 126 MiB (11%)
Alignment                           : Split accross interleaves
Interleave, duration                : 40 ms (1.00 video frame)
Interleave, preload duration        : 500 ms
<div class="sp-wrap">
<div class="sp-head folded">Сравнение
</div>
<div class="sp-body">Сравнение с этой раздачей ...4566975
http://screenshotcomparison.com/comparison/114789/picture:9</div>
</div>

Трекер:  [ 05-Июн-2018 15:42 ]

  

Скачать .torrent

Размер .torrent файла 11 KB


Размер: 2.14 GB
Хэш (hash) релиза: 42cfaddc83ab3815f63b0b8963bafe841a24ab5b
Подписка на обновления:

Еще никто не оставлял запись к записи скачать торрент Незабудки Сезон: 1 . Будь первым!

!Обратная связь