Trophy Wife | Chasing Life | Bachir Salloum - Reeba (Retza Remix)

Скачать через торрент Трансформеры. Роботы под прикрытием Transformers: Robots in Disguise Фильм бесплатно в хорошем качестве torrent

Скачивайте на UnionPeer.org фильмы через торрент без регистрации. Новинки кино в хорошем качестве через торрент. На UnionPeer.org можно скачать через торрент фильмы 2014 и 2015 годов. Самые новые фильмы.

Скачать торрент Трансформеры. Роботы под прикрытием Transformers: Robots in Disguise бесплатно через .torrent фильм мультфильм сериал

Статистика раздачи
Размер:  17.94 GB   |    Зарегистрирован:  17 дней   |    .torrent скачан:  32 раза   |   
Раздают:  1  
   
загрузка...
 
Автор Сообщение

Galfimbul

avatar Galfimbul


Трансформеры. Роботы под прикрытием / Transformers: Robots in Disguise

Страна: США
Жанр: Мультсериал, детский, семейный, приключения
Продолжительность серии: 00:21:40
Год выпуска: 2017
Перевод: Профессиональный (дублированный)
Русские субтитры: нет

Режиссёр: Скутер Тидвелл / Scooter Tidwell
Роли озвучивали: Уилл Фридел, Даррен Крисс, Констанс Зиммер, Хари Пэйтон, Митчелл Уитфилд, Стюарт Аллан, Тед МакГинли, Эрик Бауза, Роджер Крэйг Смит, Питер Каллен

Описание: Бамблби вызывают, чтобы спасти Землю от новой группы десептиконов, сбежавших из рухнувшего на планету корабля-тюрьмы. Автобот собирает группу неопытных воинов, включающих в себя бунтующего «плохиша», кадета элитной гвардии, напыщенного динобота и гиперактивного миникона. Вместе отряд пытается поймать новых врагов.

Список серий:
01.King.of.the.Hill.Part.1
02.King.of.the.Hill.Part.2
03.Defrosted
04.Blurred
05.Sphere.of.Influence
06.Bee.Cool
07.The.Great.Divide
08.Get.a.Clue
09.Out.of.the.Shadows
10.Disordered.Personalities
11.Guilty.as.Charged
12.The.Golden.Knight
13.The.Fastest.Bot.Alive
14.Railroad.Rage
15.Combine.and.Conquer
16.Moon.Breaker
17.Exiles
18.Breathing.Room
19.Prepare.for.Departure
20.Prisoner.Principles
21.Collateral.Damage
22.Something.He.Ate
23.Sick.as.a.Bot
24.Five.Fugitives
25.Enemy.of.My.Enemy
26.Freedom.Fighters

Семпл: http://multi-up.com/1200573

Качество: WEB-DL 720p
Формат: MKV
Видео: h264, 1280*720, 23.976fps, 4000 kbps
Аудио: AC3, rus, 48000 Hz, 2ch, 192 kbps
Аудио 2: AC3, eng, 48000 Hz, 6ch, 384 kbps
Субтитры: английские
GeneralUnique ID : 221212555245301793731079026633937415819 (0xA66BFD093BA536836C16ECDCB8CE6E8B)Format : MatroskaFormat version : Version 4 / Version 2File size : 706 MiBDuration : 21 min 40 sOverall bit rate : 4 556 kb/sEncoded date : UTC 2018-05-11 07:58:30Writing application : mkvmerge v22.0.0 ('At The End Of The World') 64-bitWriting library : libebml v1.3.5 + libmatroska v1.4.8

VideoID : 1Format : AVCFormat/Info : Advanced Video CodecFormat profile : [email protected] settings, CABAC : NoFormat settings, ReFrames : 2 framesCodec ID : V_MPEG4/ISO/AVCDuration : 21 min 40 sBit rate : 3 977 kb/sWidth : 1 280 pixelsHeight : 720 pixelsDisplay aspect ratio : 16:9Frame rate mode : ConstantFrame rate : 23.976 (24000/1001) FPSColor space : YUVChroma subsampling : 4:2:0Bit depth : 8 bitsScan type : ProgressiveBits/(Pixel*Frame) : 0.180Stream size : 616 MiB (87%)Title : H.264Default : YesForced : NoColor range : LimitedColor primaries : BT.709Transfer characteristics : BT.709Matrix coefficients : BT.709

Audio #1ID : 2Format : AC-3Format/Info : Audio Coding 3Mode extension : CM (complete main)Format settings, Endianness : BigCodec ID : A_AC3Duration : 21 min 40 sBit rate mode : ConstantBit rate : 192 kb/sChannel(s) : 2 channelsChannel positions : Front: L RSampling rate : 48.0 kHzFrame rate : 31.250 FPS (1536 spf)Bit depth : 16 bitsCompression mode : LossyStream size : 29.8 MiB (4%)Language : RussianDefault : YesForced : No

Audio #2ID : 3Format : AC-3Format/Info : Audio Coding 3Mode extension : CM (complete main)Format settings, Endianness : BigCodec ID : A_AC3Duration : 21 min 40 sBit rate mode : ConstantBit rate : 384 kb/sChannel(s) : 6 channelsChannel positions : Front: L C R, Side: L R, LFESampling rate : 48.0 kHzFrame rate : 31.250 FPS (1536 spf)Bit depth : 16 bitsCompression mode : LossyStream size : 59.5 MiB (8%)Title : DD5.1Language : EnglishDefault : NoForced : No

TextID : 4Format : UTF-8Codec ID : S_TEXT/UTF8Codec ID/Info : UTF-8 Plain TextDuration : 21 min 12 sBit rate : 84 b/sCount of elements : 417Stream size : 13.1 KiB (0%)Title : CCLanguage : EnglishDefault : NoForced : No
Предыдущие и альтернативные раздачи

Трекер:  [ 04-Июн-2018 22:54 ]

  

Скачать .torrent

Размер .torrent файла 93 KB


Размер: 17.94 GB
Хэш (hash) релиза: 0e9526ba470465dcc8744eabca6e377b114fbcbb
Подписка на обновления:

Еще никто не оставлял запись к записи скачать торрент Трансформеры. Роботы под прикрытием Transformers: Robots in Disguise . Будь первым!

!Обратная связь