Jurassic World: El reino caído Una erupción volcánica amenaza a los dinosaurios restantes en la Isla Nublar, donde las criaturas han vagado libremente durante años tras de la desaparición del parque temático "Jurassic World". Claire Dearing, ex gerente del parque, ahora fundó el Grupo de Protección de Dinosaurios, una organización dedicada a intentar preservarlos. Cuando a Claire le ofrecen la oportunidad de rescatar algunos ejemplares de la isla, acude a Owen Grady, el ex entrenador de dinosaurios que trabajó en el parque, para que la ayude a evitar la extinción de los dinosaurios... Secuela de "Jurassic World". ... | Jeff Goldblum | cartoon games

Скачать через торрент Comedy Club Фильм бесплатно в хорошем качестве torrent

Скачивайте на UnionPeer.org фильмы через торрент без регистрации. Новинки кино в хорошем качестве через торрент. На UnionPeer.org можно скачать через торрент фильмы 2014 и 2015 годов. Самые новые фильмы.

Скачать торрент Comedy Club бесплатно через .torrent фильм мультфильм сериал

Статистика раздачи
Размер:  551 MB   |    Зарегистрирован:  3 месяца 19 дней   |    .torrent скачан:  69 раз   |   
Раздают:  1  
   
загрузка...
 
Автор Сообщение

Galfimbul

avatar Galfimbul


Comedy Club (выпуск 478 от 01-06-2018)

Дата/Год выпуска: 2018
Страна: Россия
Жанр: Юмор
Продолжительность: 00:45:46
Перевод: Не требуется
Режиссер: Ксения Чашей, Дмитрий Ефимович, Роман Новиков, Гарик Мартиросян

Телеканал: ТНТ HD
Описание: В эфире ТНТ новые выпуски главного комедийного шоу страны. Общение со звездными гостями, знакомства с людьми самых невероятных профессий и абсолютно новые номера от топовых резидентов Comedy Club.

качество: HDTVRip
формат: AVI
Видео: XVID, 704x400 (16:9), 25.000 fps, 1482 kbps
Аудио: MP3, 192 kbps, 48.0 KHz, 2 ch
GeneralComplete name : D:\Humor\Comedy\Comedy Club 478 (01-06-2018) HDTVRip.aviFormat : AVIFormat/Info : Audio Video InterleaveFile size : 551 MiBDuration : 45mn 46sOverall bit rate : 1 684 KbpsWriting application : VirtualDubMod 1.5.10.3 | www.virtualdub-fr.org || (build 2550/release)Writing library : VirtualDubMod build 2550/release

VideoID : 0Format : MPEG-4 VisualFormat profile : Advanced [email protected] settings, BVOP : 1Format settings, QPel : NoFormat settings, GMC : No warppointsFormat settings, Matrix : CustomCodec ID : XVIDCodec ID/Hint : XviDDuration : 45mn 46sBit rate : 1 482 KbpsWidth : 704 pixelsHeight : 400 pixelsDisplay aspect ratio : 16:9Frame rate : 25.000 fpsColor space : YUVChroma subsampling : 4:2:0Bit depth : 8 bitsScan type : ProgressiveCompression mode : LossyBits/(Pixel*Frame) : 0.210Stream size : 485 MiB (88%)Writing library : XviD 73

AudioID : 1Format : MPEG AudioFormat version : Version 1Format profile : Layer 3Codec ID : 55Codec ID/Hint : MP3Duration : 45mn 46sBit rate mode : ConstantBit rate : 192 KbpsChannel count : 2 channelsSampling rate : 48.0 KHzCompression mode : LossyStream size : 62.9 MiB (11%)Alignment : Aligned on interleavesInterleave, duration : 40 ms (1.00 video frame)Interleave, preload duration : 504 msWriting library : LAME3.99rEncoding settings : -m s -V 4 -q 0 -lowpass 18.6 -b 192


Трекер:  [ 04-Июн-2018 22:42 ]

  

Скачать .torrent

Размер .torrent файла 11 KB


Размер: 551 MB
Хэш (hash) релиза: ebe68cd4ce85476ce5c4d33f5568a593808e1e57
Подписка на обновления:

Торренты, похожие на Comedy Club скачать торрент

Форум Название Автор Размер S L Добавлен
Развлекательные телепередачи и шоу ·· Comedy Club (Выпуск 381) (эфир от 06.12.13) (Гарик Мартиросян) [2013, Юмор, Stand-up comedy, WEBD-LRip] Galfimbul 655344146625 MB 0 0 1386328256

14:10

6-Дек-13

Развлекательные телепередачи и шоу ·· Comedy Club (выпуск 479 от 08-06-2018) (Ксения Чашей, Дмитрий Ефимович, Роман Новиков, Гарик Мартиросян) [2018, Юмор, HDTV 1080i] Galfimbul 14734932461.37 GB 0 0 1528486931

22:42

8-Июн-18

Развлекательные телепередачи и шоу ·· Comedy Club (выпуск 478 от 01-06-2018) (Ксения Чашей, Дмитрий Ефимович, Роман Новиков, Гарик Мартиросян) [2018, Юмор, HDTV 1080i] Galfimbul 14687322231.37 GB 0 0 1527885728

23:42

1-Июн-18

Развлекательные телепередачи и шоу ·· Comedy Club (выпуск 477 от 25-05-2018) (Ксения Чашей, Дмитрий Ефимович, Роман Новиков, Гарик Мартиросян) [2018, Юмор, HDTVRip] Galfimbul 588247040561 MB 0 0 1527338530

15:42

26-Май-18

Развлекательные телепередачи и шоу ·· Comedy Club (выпуск 477 от 25-05-2018) (Ксения Чашей, Дмитрий Ефимович, Роман Новиков, Гарик Мартиросян) [2018, Юмор, HDTV 1080i] Galfimbul 14546018761.35 GB 0 0 1527280929

23:42

25-Май-18

Развлекательные телепередачи и шоу ·· Comedy Club (выпуск 476 от 18-05-2018) (Ксения Чашей, Дмитрий Ефимович, Роман Новиков, Гарик Мартиросян) [2018, Юмор, HDTVRip] Galfimbul 587900928561 MB 0 0 1527021733

23:42

22-Май-18

Развлекательные телепередачи и шоу ·· Comedy Club (выпуск 476 от 18-05-2018) (Ксения Чашей, Дмитрий Ефимович, Роман Новиков, Гарик Мартиросян) [2018, Юмор, HDTV 1080i] Galfimbul 14063009131.31 GB 0 0 1526674331

23:12

18-Май-18

Развлекательные телепередачи и шоу ·· 19 миниатюр "Дуэта имени Чехова" (Дует імені Чехова)(Comedy Club Ukraine / Камеді Клаб Україна) Galfimbul 982105354937 MB 0 0 1519991051

14:44

2-Мар-18

Развлекательные телепередачи и шоу ·· Новый Comedy Club (Ксения Чашей, Дмитрий Ефимович, Роман Новиков, Гарик Мартиросян) [28.04.2017, Юмор, HDTV 1080i] Galfimbul 52214539084.86 GB 0 0 1509957958

11:45

6-Ноя-17

Развлекательные телепередачи и шоу ·· Новый Comedy Club (Ксения Чашей, Дмитрий Ефимович, Роман Новиков, Гарик Мартиросян) [12.05.2017, Юмор, HDTV 1080i] Galfimbul 54430167965.07 GB 0 0 1509957943

11:45

6-Ноя-17

Развлекательные телепередачи и шоу ·· Новый Comedy Club в Барвихе (Ксения Чашей, Дмитрий Ефимович, Роман Новиков, Гарик Мартиросян) [03.11.2017, Юмор, HDTV 1080i] Galfimbul 34473964203.21 GB 0 0 1509956251

11:17

6-Ноя-17

Развлекательные телепередачи и шоу ·· Новый Comedy Club в Барвихе [01-08] (Ксения Чашей, Дмитрий Ефимович, Роман Новиков, Гарик Мартиросян) [2017, Юмор, WEB-DLRip] Galfimbul 53873418245.02 GB 0 0 1509956243

11:17

6-Ноя-17

Развлекательные телепередачи и шоу ·· Comedy Club в Барвихе (Ксения Чашей, Дмитрий Ефимович, Роман Новиков) [2017 г., ТВ-шоу, юмор, HDTV 1080i] | 03.11.2017 Galfimbul 34473964203.21 GB 0 0 1509790805

13:20

4-Ноя-17

Развлекательные телепередачи и шоу ·· Камеди клаб / Comedy Club (Гарик Мартиросян) [2005, Юмор, DVDRip] Galfimbul 39509708803.68 GB 0 0 1509783462

11:17

4-Ноя-17

Развлекательные телепередачи и шоу ·· Comedy Club Ukraine, Выпуски 1-50. ПостКВН. (МЕГАРАЗДАЧА) Galfimbul 2571249794223.95 GB 0 0 1499966225

20:17

13-Июл-17

Развлекательные телепередачи и шоу ·· ПостКВН. Comedy Club на Первом, Выпуск 1 [2006, Юмор, SATRip] Galfimbul 747997184713 MB 0 0 1499624219

21:16

9-Июл-17

Развлекательные телепередачи и шоу ·· ПостКВН. Comedy Club на Первом, Выпуск 2 [2006, Юмор, SATRip] Galfimbul 732121088698 MB 0 0 1499624211

21:16

9-Июл-17

Развлекательные телепередачи и шоу ·· ПостКВН. Comedy Club на Первом, Выпуск 3 [2007, Юмор, SATRip] Galfimbul 876447744836 MB 0 0 1499624202

21:16

9-Июл-17

Развлекательные телепередачи и шоу ·· ПостКВН. Comedy Club на Первом, Выпуск 4 [2007, Юмор, SATRip] Galfimbul 12587970561.17 GB 0 0 1499624193

21:16

9-Июл-17

Еще никто не оставлял запись к записи скачать торрент Comedy Club . Будь первым!

!Обратная связь