Zoner Photo Studio X 19.1806.2.72 (2018) РС | RePack by KpoJIuK | Точка невозврата | Just Getting Started (2017)

Скачать через торрент Импровизация Фильм бесплатно в хорошем качестве torrent

Скачивайте на UnionPeer.org фильмы через торрент без регистрации. Новинки кино в хорошем качестве через торрент. На UnionPeer.org можно скачать через торрент фильмы 2014 и 2015 годов. Самые новые фильмы.

Скачать торрент Импровизация бесплатно через .torrent фильм мультфильм сериал

Статистика раздачи
Размер:  550 MB   |    Зарегистрирован:  1 месяц 14 дней   |    .torrent скачан:  34 раза   |   
Раздают:  1  
   
загрузка...
 
Автор Сообщение

Galfimbul

avatar Galfimbul


Импровизация (выпуск 78-й от 27-03-2018)

Дата/Год выпуска: 2018
Страна: Россия
Жанр: Юмор
Продолжительность: 00:38:44
Перевод: Не требуется
Режиссер: Роман Новиков
Телеканал: ТНТ HD
Ведущий: Павел Воля
Актёры: Арсений Попов, Дмитрий Позов, Сергей Матвиенко, Антон Шастун.

Описание: Здесь нет сценария и всё, происходящее на сцене, придумывается участниками на ходу. Под управлением ведущего Павла Воли четыре комика и звёздный гость окажутся в самых странных ситуациях, из которых будут выбираться с помощью чувства юмора.

качество: HDTVRip
формат: AVI
Видео: XVID, 704x400 (16:9), 25.000 fps, 1537 kbps
Аудио: MP3, 192 kbps, 48.0 KHz, 2 ch
GeneralComplete name : D:\Humor\Improvizatciya\Improvizatsiya 78 vypusk HDTVRip.aviFormat : AVIFormat/Info : Audio Video InterleaveFile size : 550 MiBDuration : 38mn 43sOverall bit rate : 1 987 KbpsWriting application : VirtualDubMod 1.5.10.3 | www.virtualdub-fr.org || (build 2550/release)Writing library : VirtualDubMod build 2550/release

VideoID : 0Format : MPEG-4 VisualFormat profile : Advanced [email protected] settings, BVOP : 1Format settings, QPel : NoFormat settings, GMC : No warppointsFormat settings, Matrix : CustomCodec ID : XVIDCodec ID/Hint : XviDDuration : 38mn 43sBit rate : 1 786 KbpsWidth : 704 pixelsHeight : 400 pixelsDisplay aspect ratio : 16:9Frame rate : 25.000 fpsColor space : YUVChroma subsampling : 4:2:0Bit depth : 8 bitsScan type : ProgressiveCompression mode : LossyBits/(Pixel*Frame) : 0.254Stream size : 495 MiB (90%)Writing library : XviD 73

AudioID : 1Format : MPEG AudioFormat version : Version 1Format profile : Layer 3Codec ID : 55Codec ID/Hint : MP3Duration : 38mn 43sBit rate mode : ConstantBit rate : 192 KbpsChannel count : 2 channelsSampling rate : 48.0 KHzCompression mode : LossyStream size : 53.2 MiB (10%)Alignment : Aligned on interleavesInterleave, duration : 40 ms (1.00 video frame)Interleave, preload duration : 504 msWriting library : LAME3.99rEncoding settings : -m s -V 4 -q 0 -lowpass 18.6 -b 192


Трекер:  [ 04-Июн-2018 22:42 ]

  

Скачать .torrent

Размер .torrent файла 11 KB


Размер: 550 MB
Хэш (hash) релиза: 72a193fdecc1280701bcd7a617a435a056083c1c
Подписка на обновления:

Торренты, похожие на Импровизация скачать торрент

Форум Название Автор Размер S L Добавлен
Развлекательные телепередачи и шоу ·%· Импровизация (выпуск 88-й от 03-07-2018) (Роман Новиков) [2018, Юмор, HDTV 1080i] Galfimbul 15079094721.4 GB 0 0 1530726128

20:42

4-Июл-18

Развлекательные телепередачи и шоу ·%· Импровизация (выпуск 87-й от 27-06-2018) (Роман Новиков) [2018, Юмор, HDTV 1080i] Galfimbul 15019359011.4 GB 0 0 1530069135

06:12

27-Июн-18

Развлекательные телепередачи и шоу ·· Импровизация (выпуск 78-й от 27-03-2018) (Роман Новиков) [2018, Юмор, HDTV 1080i] Galfimbul 12568547861.17 GB 0 0 1528096329

10:12

4-Июн-18

Развлекательные телепередачи и шоу ·· Импровизация (выпуск 86-й от 29-05-2018) (Роман Новиков) [2018, Юмор, HDTVRip] Galfimbul 588136448561 MB 0 0 1527700328

20:12

30-Май-18

Развлекательные телепередачи и шоу ·· Импровизация (выпуск 86-й от 29-05-2018) (Роман Новиков) [2018, Юмор, HDTV 1080i] Galfimbul 14902784751.39 GB 0 0 1527687729

16:42

30-Май-18

Развлекательные телепередачи и шоу ·· Импровизация (выпуск 85-й от 22-05-2018) (Роман Новиков) [2018, Юмор, HDTVRip] Galfimbul 588431360561 MB 0 0 1527340339

16:12

26-Май-18

Развлекательные телепередачи и шоу ·· Импровизация (выпуск 85-й от 22-05-2018) (Роман Новиков) [2018, Юмор, HDTV 1080i] Galfimbul 15149806021.41 GB 0 0 1527019928

23:12

22-Май-18

Развлекательные телепередачи и шоу ·· Комик в городе / Сезон: 1 / Серии: 1-2 из ??? [2018, ТВ-шоу, юмор, stand-up, импровизация, SATRip] Galfimbul 626094080597 MB 0 0 1520333164

13:46

6-Мар-18

Развлекательные телепередачи и шоу ·· Импровизация [16.11.2017, Юмор, WEB-DL 720p] Galfimbul 13019316661.21 GB 0 0 1510904802

10:46

17-Ноя-17

Развлекательные телепередачи и шоу ·· Импровизация [09.11.2017, Юмор, WEB-DL 720p] Galfimbul 12733020771.19 GB 0 0 1510384502

10:15

11-Ноя-17

Развлекательные телепередачи и шоу ·· Импровизация [02.11.2017, Юмор, WEB-DL 720p] Galfimbul 12791688221.19 GB 0 0 1509992158

21:15

6-Ноя-17

Развлекательные телепередачи и шоу ·· Импровизация 1 - добавлена серия 34 (2016 - 2017) + бонус Galfimbul 4922536397245.84 GB 0 0 1497054120

03:22

10-Июн-17

Развлекательные телепередачи и шоу ·· Импровизация [14.04.2017, Юмор, WEB-DL 720p] Galfimbul 14209275811.32 GB 0 0 1497042945

00:15

10-Июн-17

Развлекательные телепередачи и шоу ·· Импровизация [21.04.2017, Юмор, WEB-DL 720p] Galfimbul 13658989461.27 GB 0 0 1497042829

00:13

10-Июн-17

Развлекательные телепередачи и шоу ·· Импровизация [28.04.2017, Юмор, WEB-DL 720p] Galfimbul 13954427711.3 GB 0 0 1497042765

00:12

10-Июн-17

Развлекательные телепередачи и шоу ·· Импровизация [05.05.2017, Юмор, WEB-DL 720p] Galfimbul 13962900451.3 GB 0 0 1497042728

00:12

10-Июн-17

Развлекательные телепередачи и шоу ·· Импровизация [12.05.2017, Юмор, WEB-DL 720p] Galfimbul 14174661091.32 GB 0 0 1497042687

00:11

10-Июн-17

Развлекательные телепередачи и шоу ·· Импровизация [12.05.2017, Юмор, WEB-DLRip] Galfimbul 750045950715 MB 0 0 1494621546

23:39

12-Май-17

Развлекательные телепередачи и шоу ·· Импровизация 1 - добавлена серия 31 (2016 - 2017) + бонус (исправлены файловые ошибки) Galfimbul 4501588255441.92 GB 0 0 1494128470

06:41

7-Май-17

Еще никто не оставлял запись к записи скачать торрент Импровизация . Будь первым!

!Обратная связь