Episode 59 | 1.sgsr213 | Thom Hoffman

Скачать через торрент Надломленные души Серии: 1-4 из 4 Фильм бесплатно в хорошем качестве torrent

Скачивайте на UnionPeer.org фильмы через торрент без регистрации. Новинки кино в хорошем качестве через торрент. На UnionPeer.org можно скачать через торрент фильмы 2014 и 2015 годов. Самые новые фильмы.

Скачать торрент Надломленные души Серии: 1-4 из 4 бесплатно через .torrent фильм мультфильм сериал

Статистика раздачи
Размер:  2.74 GB   |    Зарегистрирован:  3 месяца 22 дня   |    .torrent скачан:  49 раз   |   
Раздают:  1  
   
загрузка...
 
Автор Сообщение

Galfimbul

avatar Galfimbul


Надломленные души

Год выпуска: 2018
Производство: Студия "Жар-Птица"
Жанр: мелодрама
Продолжительность: ~00:45:00 серия
Субтитры: нет

Режиссёр: Сергей Борчуков

В ролях: Екатерина Семёнова, Владимир Гориславец, Андрей Егоров, Анастасия Куимова, Татьяна Полосина, Алёна Михайлова, Алексей Колган, Мария Леонова, Алексей Матошин, Владислав Погиба, Анастасия Теплинская

Описание: Лидия Константиновна — главный балетмейстер театра, жесткая и бескомпромиссная женщина. Для нее в жизни существуют только две вещи — балет и ее дочка Рита.
Рита влюбляется в Максима Морозова, нового танцовщика в труппе Лидии. Как опытный балетмейстер, Лидия много повидала таких заносчивых и бессовестных нарциссов, готовых на все ради славы. Она точно знает, что Максим использует Риту, чтобы получить главную роль и считает своим долгом защитить дочь от разочарования и унижения. Но все происходит не так, как рассчитывала Лидия…

Реклама: Нет.

Кинопоиск

Sample

Качество: WEBRip - Files-x
Формат: AVI
Видео кодек: XviD
Аудио кодек: AC3
Видео: 720x400 (1.80:1), 25 fps, XviD build 73 ~2000 kbps avg, 0.277 bit/pixel
Аудио: 48.0 kHz, AC3 Dolby Digital, 2/0 (L,R) ch, ~ 192 kbps
General
Complete name : D:\Надломленные души.2018.WEB-DLRip.Files-x\1.Надломленные души.2018.WEB-DLRip.Files-x.avi
Format : AVI
Format/Info : Audio Video Interleave
File size : 1.37 GiB
Duration : 1 h 29 min
Overall bit rate : 2 193 kb/s
Writing application : VirtualDubMod 1.5.10.3 | www.virtualdub-fr.org || (build 2550/release)
Writing library : VirtualDubMod build 2550/release

Video
ID : 0
Format : MPEG-4 Visual
Format profile : Advanced [email protected]
Format settings : BVOP1 / Custom Matrix
Format settings, BVOP : 1
Format settings, QPel : No
Format settings, GMC : No warppoints
Format settings, Matrix : Custom
Codec ID : XVID
Codec ID/Hint : XviD
Duration : 1 h 29 min
Bit rate : 1 992 kb/s
Width : 720 pixels
Height : 400 pixels
Display aspect ratio : 16:9
Frame rate : 25.000 FPS
Color space : YUV
Chroma subsampling : 4:2:0
Bit depth : 8 bits
Scan type : Progressive
Compression mode : Lossy
Bits/(Pixel*Frame) : 0.277
Stream size : 1.24 GiB (91%)
Writing library : XviD 73

Audio
ID : 1
Format : AC-3
Format/Info : Audio Coding 3
Codec ID : 2000
Duration : 1 h 29 min
Bit rate mode : Constant
Bit rate : 192 kb/s
Channel(s) : 2 channels
Channel positions : Front: L R
Sampling rate : 48.0 kHz
Frame rate : 31.250 FPS (1536 SPF)
Bit depth : 16 bits
Compression mode : Lossy
Stream size : 123 MiB (9%)
Alignment : Split accross interleaves
Interleave, duration : 40 ms (1.00 video frame)
Interleave, preload duratio : 500 ms
Service kind : Complete Main


Трекер:  [ 03-Июн-2018 10:12 ]

  

Скачать .torrent

Размер .torrent файла 14 KB


Размер: 2.74 GB
Хэш (hash) релиза: 0c4b40424593b303e9988cec4e88ca649ec1a0f3
Подписка на обновления:

Торренты, похожие на Надломленные души Серии: 1-4 из 4 скачать торрент

Форум Название Автор Размер S L Добавлен
Российские сериалы ·· Надломленные души / Серии: 1-4 из 4 (Сергей Борчуков) [2018, мелодрама, HDTVRip 720p] Galfimbul 55945763585.21 GB 0 0 1528027944

15:12

3-Июн-18

Еще никто не оставлял запись к записи скачать торрент Надломленные души Серии: 1-4 из 4 . Будь первым!

!Обратная связь