Família | Paths of Glory | The Beast Action

Скачать через торрент Гангрейв Gungrave Фильм бесплатно в хорошем качестве torrent

Скачивайте на UnionPeer.org фильмы через торрент без регистрации. Новинки кино в хорошем качестве через торрент. На UnionPeer.org можно скачать через торрент фильмы 2014 и 2015 годов. Самые новые фильмы.

Скачать торрент Гангрейв Gungrave бесплатно через .torrent фильм мультфильм сериал

Статистика раздачи
Размер:  2.85 GB   |    Зарегистрирован:  2 месяца 17 дней   |    .torrent скачан:  17 раз   |   
Раздают:  1  
   
загрузка...
 
Автор Сообщение

Galfimbul

avatar Galfimbul


Гангрейв
Gungrave / ガングレイヴ
Год выпуска: 2003
Страна: Япония
Жанр: приключения, драма, фантастика, мистика
Продолжительность: 26 серий x 25 мин
Перевод: Русский хардсаб
Режиссер: Цуру Тосиюки / Tsuru Toshiyuki / 都留稔幸
Автор оригинала: Найто Ясухиро / Nightow Yasuhiro / 内藤泰弘
Студия:

Описание: Печальная история о двух друзьях детства, которые росли обыкновенной уличной шпаной и которым было уготовано изменить свою судьбу. Их имена теперь знали все в городе и за пределом его, при упоминании о них начинали дрожать колени даже у отъявленных мафиози. Они гордо достигали любую цель, ни разу не оступаясь. Но однажды пути их разошлись... Сможет ли крепкая дружба не разорваться в одночасие? И сможет ли смерть предотвратить возмездие и неизбежную войну на уничтожение? На что пойдёт абсолютный убийца, в буквальном смысле восставший из могилы, ради достижения последней поставленной перед собой цели?..


Другие версии Gungrave:

Профессиональный (многоголосый, закадровый) перевод.
Качество: DVDRip
Формат: MP4
Видео кодек: H.264
Аудио кодек: AAC
Видео: MPEG4 Video (H264, 2 pass, Extreme) 480x272 29.97fps, 512 kbps
Аудио: AAC 48000Hz stereo, 128 kbps
01. Destroyer in the Dusk
02. Young Dogs
03. Rain
04. Go
05. Millennion
06. Big Daddy
07. 5 Years Later
08. Family
09. Dispute
10. Conflict
11. Heat
12. Kind
13. Betrayal
14. Die
15. Harry
16. Letter
17. Mika
18. Grave
19. Superior
20. Brother
21. Duty
22. Remorse
23. Daughter
24. Last Bullet
25. Then
26. Twilight of the Destroyers
Общее
Полное имя : C:\torrents\[ANIME4PSP] Gungrave\12. Kind.mp4
Формат : MPEG-4
Профиль формата : Base Media
Идентификатор кодека : isom (isom/avc1)
Размер файла : 112 Мбайт
Продолжительность : 24 м. 20 с.
Режим общего битрейта : Переменный
Общий поток : 644 Кбит/сек
Дата кодирования : UTC 2009-03-04 04:05:52
Дата пометки : UTC 2009-03-04 04:05:52

Видео
Идентификатор : 1
Формат : AVC
Формат/Информация : Advanced Video Codec
Профиль формата : [email protected]
Настройки формата : CABAC / 2 Ref Frames
Параметр CABAC формата : Да
Параметр RefFrames формата : 2 кадра
Идентификатор кодека : avc1
Идентификатор кодека/Информация : Advanced Video Coding
Продолжительность : 24 м. 20 с.
Битрейт : 512 Кбит/сек
Максимальный битрейт : 2710 Кбит/сек
Ширина : 480 пикселей
Высота : 272 пикселя
Соотношение сторон : 16:9
Режим частоты кадров : Постоянный
Частота кадров : 29,970 (30000/1001) кадров/сек
Частота кадров в оригинале : 29,970 (29970/1000) кадров/сек
Цветовое пространство : YUV
Субдискретизация насыщенности : 4:2:0
Битовая глубина : 8 бит
Тип развёртки : Прогрессивная
Бит/(Пиксели*Кадры) : 0.131
Размер потока : 89,1 Мбайт (79%)
Библиотека кодирования : x264 core 58 svn-736
Настройки программы : cabac=1 / ref=2 / deblock=1:-2:-1 / analyse=0x1:0x131 / me=umh / subme=7 / brdo=1 / mixed_ref=1 / me_range=16 / chroma_me=1 / trellis=2 / 8x8dct=0 / cqm=0 / deadzone=21,11 / chroma_qp_offset=0 / threads=2 / nr=0 / decimate=0 / mbaff=0 / bframes=3 / b_pyramid=0 / b_adapt=1 / b_bias=0 / direct=3 / wpredb=1 / bime=1 / keyint=250 / keyint_min=25 / scenecut=40(pre) / rc=2pass / bitrate=512 / ratetol=1.0 / rceq='blurCplx^(1-qComp)' / qcomp=0.60 / qpmin=10 / qpmax=51 / qpstep=4 / cplxblur=20.0 / qblur=0.5 / ip_ratio=1.40 / pb_ratio=1.30
Дата кодирования : UTC 2009-03-04 04:05:52
Дата пометки : UTC 2009-03-04 04:05:53

Аудио
Идентификатор : 2
Формат : AAC
Формат/Информация : Advanced Audio Codec
Профиль формата : LC
Идентификатор кодека : mp4a-40-2
Продолжительность : 24 м. 20 с.
Вид битрейта : Переменный
Битрейт : 129 Кбит/сек
Максимальный битрейт : 177 Кбит/сек
Каналы : 2 канала
Расположение каналов : Front: L R
Частота : 48,0 КГц
Частота кадров : 46,875 кадров/сек (1024 SPF)
Метод сжатия : С потерями
Размер потока : 22,4 Мбайт (20%)
Дата кодирования : UTC 2009-03-04 04:05:53
Дата пометки : UTC 2009-03-04 04:05:53

Общее
Полное имя : C:\torrents\[ANIME4PSP] Gungrave\13. Betrayal.mp4
Формат : MPEG-4
Профиль формата : Base Media
Идентификатор кодека : isom (isom/avc1)
Размер файла : 112 Мбайт
Продолжительность : 24 м. 23 с.
Режим общего битрейта : Переменный
Общий поток : 644 Кбит/сек
Дата кодирования : UTC 2009-03-04 04:37:34
Дата пометки : UTC 2009-03-04 04:37:34

Видео
Идентификатор : 1
Формат : AVC
Формат/Информация : Advanced Video Codec
Профиль формата : [email protected]
Настройки формата : CABAC / 2 Ref Frames
Параметр CABAC формата : Да
Параметр RefFrames формата : 2 кадра
Идентификатор кодека : avc1
Идентификатор кодека/Информация : Advanced Video Coding
Продолжительность : 24 м. 23 с.
Битрейт : 512 Кбит/сек
Максимальный битрейт : 2834 Кбит/сек
Ширина : 480 пикселей
Высота : 272 пикселя
Соотношение сторон : 16:9
Режим частоты кадров : Постоянный
Частота кадров : 29,970 (30000/1001) кадров/сек
Частота кадров в оригинале : 29,970 (29970/1000) кадров/сек
Цветовое пространство : YUV
Субдискретизация насыщенности : 4:2:0
Битовая глубина : 8 бит
Тип развёртки : Прогрессивная
Бит/(Пиксели*Кадры) : 0.131
Размер потока : 89,3 Мбайт (79%)
Библиотека кодирования : x264 core 58 svn-736
Настройки программы : cabac=1 / ref=2 / deblock=1:-2:-1 / analyse=0x1:0x131 / me=umh / subme=7 / brdo=1 / mixed_ref=1 / me_range=16 / chroma_me=1 / trellis=2 / 8x8dct=0 / cqm=0 / deadzone=21,11 / chroma_qp_offset=0 / threads=2 / nr=0 / decimate=0 / mbaff=0 / bframes=3 / b_pyramid=0 / b_adapt=1 / b_bias=0 / direct=3 / wpredb=1 / bime=1 / keyint=250 / keyint_min=25 / scenecut=40(pre) / rc=2pass / bitrate=512 / ratetol=1.0 / rceq='blurCplx^(1-qComp)' / qcomp=0.60 / qpmin=10 / qpmax=51 / qpstep=4 / cplxblur=20.0 / qblur=0.5 / ip_ratio=1.40 / pb_ratio=1.30
Дата кодирования : UTC 2009-03-04 04:37:34
Дата пометки : UTC 2009-03-04 04:37:36

Аудио
Идентификатор : 2
Формат : AAC
Формат/Информация : Advanced Audio Codec
Профиль формата : LC
Идентификатор кодека : mp4a-40-2
Продолжительность : 24 м. 23 с.
Вид битрейта : Переменный
Битрейт : 129 Кбит/сек
Максимальный битрейт : 184 Кбит/сек
Каналы : 2 канала
Расположение каналов : Front: L R
Частота : 48,0 КГц
Частота кадров : 46,875 кадров/сек (1024 SPF)
Метод сжатия : С потерями
Размер потока : 22,5 Мбайт (20%)
Дата кодирования : UTC 2009-03-04 04:37:36
Дата пометки : UTC 2009-03-04 04:37:36

Общее
Полное имя : C:\torrents\[ANIME4PSP] Gungrave\14. Die.mp4
Формат : MPEG-4
Профиль формата : Base Media
Идентификатор кодека : isom (isom/avc1)
Размер файла : 112 Мбайт
Продолжительность : 24 м. 21 с.
Режим общего битрейта : Переменный
Общий поток : 644 Кбит/сек
Дата кодирования : UTC 2009-03-04 05:07:11
Дата пометки : UTC 2009-03-04 05:07:11

Видео
Идентификатор : 1
Формат : AVC
Формат/Информация : Advanced Video Codec
Профиль формата : [email protected]
Настройки формата : CABAC / 2 Ref Frames
Параметр CABAC формата : Да
Параметр RefFrames формата : 2 кадра
Идентификатор кодека : avc1
Идентификатор кодека/Информация : Advanced Video Coding
Продолжительность : 24 м. 21 с.
Битрейт : 512 Кбит/сек
Максимальный битрейт : 2316 Кбит/сек
Ширина : 480 пикселей
Высота : 272 пикселя
Соотношение сторон : 16:9
Режим частоты кадров : Постоянный
Частота кадров : 29,970 (30000/1001) кадров/сек
Частота кадров в оригинале : 29,970 (29970/1000) кадров/сек
Цветовое пространство : YUV
Субдискретизация насыщенности : 4:2:0
Битовая глубина : 8 бит
Тип развёртки : Прогрессивная
Бит/(Пиксели*Кадры) : 0.131
Размер потока : 89,2 Мбайт (79%)
Библиотека кодирования : x264 core 58 svn-736
Настройки программы : cabac=1 / ref=2 / deblock=1:-2:-1 / analyse=0x1:0x131 / me=umh / subme=7 / brdo=1 / mixed_ref=1 / me_range=16 / chroma_me=1 / trellis=2 / 8x8dct=0 / cqm=0 / deadzone=21,11 / chroma_qp_offset=0 / threads=2 / nr=0 / decimate=0 / mbaff=0 / bframes=3 / b_pyramid=0 / b_adapt=1 / b_bias=0 / direct=3 / wpredb=1 / bime=1 / keyint=250 / keyint_min=25 / scenecut=40(pre) / rc=2pass / bitrate=512 / ratetol=1.0 / rceq='blurCplx^(1-qComp)' / qcomp=0.60 / qpmin=10 / qpmax=51 / qpstep=4 / cplxblur=20.0 / qblur=0.5 / ip_ratio=1.40 / pb_ratio=1.30
Дата кодирования : UTC 2009-03-04 05:07:11
Дата пометки : UTC 2009-03-04 05:07:13

Аудио
Идентификатор : 2
Формат : AAC
Формат/Информация : Advanced Audio Codec
Профиль формата : LC
Идентификатор кодека : mp4a-40-2
Продолжительность : 24 м. 21 с.
Вид битрейта : Переменный
Битрейт : 129 Кбит/сек
Максимальный битрейт : 168 Кбит/сек
Каналы : 2 канала
Расположение каналов : Front: L R
Частота : 48,0 КГц
Частота кадров : 46,875 кадров/сек (1024 SPF)
Метод сжатия : С потерями
Размер потока : 22,5 Мбайт (20%)
Дата кодирования : UTC 2009-03-04 05:07:12
Дата пометки : UTC 2009-03-04 05:07:13

Общее
Полное имя : C:\torrents\[ANIME4PSP] Gungrave\15. Harry.mp4
Формат : MPEG-4
Профиль формата : Base Media
Идентификатор кодека : isom (isom/avc1)
Размер файла : 112 Мбайт
Продолжительность : 24 м. 23 с.
Режим общего битрейта : Переменный
Общий поток : 644 Кбит/сек
Дата кодирования : UTC 2009-03-04 05:38:33
Дата пометки : UTC 2009-03-04 05:38:33

Видео
Идентификатор : 1
Формат : AVC
Формат/Информация : Advanced Video Codec
Профиль формата : [email protected]
Настройки формата : CABAC / 2 Ref Frames
Параметр CABAC формата : Да
Параметр RefFrames формата : 2 кадра
Идентификатор кодека : avc1
Идентификатор кодека/Информация : Advanced Video Coding
Продолжительность : 24 м. 23 с.
Битрейт : 512 Кбит/сек
Максимальный битрейт : 2849 Кбит/сек
Ширина : 480 пикселей
Высота : 272 пикселя
Соотношение сторон : 16:9
Режим частоты кадров : Постоянный
Частота кадров : 29,970 (30000/1001) кадров/сек
Частота кадров в оригинале : 29,970 (29970/1000) кадров/сек
Цветовое пространство : YUV
Субдискретизация насыщенности : 4:2:0
Битовая глубина : 8 бит
Тип развёртки : Прогрессивная
Бит/(Пиксели*Кадры) : 0.131
Размер потока : 89,3 Мбайт (79%)
Библиотека кодирования : x264 core 58 svn-736
Настройки программы : cabac=1 / ref=2 / deblock=1:-2:-1 / analyse=0x1:0x131 / me=umh / subme=7 / brdo=1 / mixed_ref=1 / me_range=16 / chroma_me=1 / trellis=2 / 8x8dct=0 / cqm=0 / deadzone=21,11 / chroma_qp_offset=0 / threads=2 / nr=0 / decimate=0 / mbaff=0 / bframes=3 / b_pyramid=0 / b_adapt=1 / b_bias=0 / direct=3 / wpredb=1 / bime=1 / keyint=250 / keyint_min=25 / scenecut=40(pre) / rc=2pass / bitrate=512 / ratetol=1.0 / rceq='blurCplx^(1-qComp)' / qcomp=0.60 / qpmin=10 / qpmax=51 / qpstep=4 / cplxblur=20.0 / qblur=0.5 / ip_ratio=1.40 / pb_ratio=1.30
Дата кодирования : UTC 2009-03-04 05:38:33
Дата пометки : UTC 2009-03-04 05:38:36

Аудио
Идентификатор : 2
Формат : AAC
Формат/Информация : Advanced Audio Codec
Профиль формата : LC
Идентификатор кодека : mp4a-40-2
Продолжительность : 24 м. 23 с.
Вид битрейта : Переменный
Битрейт : 129 Кбит/сек
Максимальный битрейт : 179 Кбит/сек
Каналы : 2 канала
Расположение каналов : Front: L R
Частота : 48,0 КГц
Частота кадров : 46,875 кадров/сек (1024 SPF)
Метод сжатия : С потерями
Размер потока : 22,4 Мбайт (20%)
Дата кодирования : UTC 2009-03-04 05:38:35
Дата пометки : UTC 2009-03-04 05:38:36

Общее
Полное имя : C:\torrents\[ANIME4PSP] Gungrave\16. Letter.mp4
Формат : MPEG-4
Профиль формата : Base Media
Идентификатор кодека : isom (isom/avc1)
Размер файла : 112 Мбайт
Продолжительность : 24 м. 20 с.
Режим общего битрейта : Переменный
Общий поток : 644 Кбит/сек
Дата кодирования : UTC 2009-03-03 21:08:28
Дата пометки : UTC 2009-03-03 21:08:28

Видео
Идентификатор : 1
Формат : AVC
Формат/Информация : Advanced Video Codec
Профиль формата : [email protected]
Настройки формата : CABAC / 2 Ref Frames
Параметр CABAC формата : Да
Параметр RefFrames формата : 2 кадра
Идентификатор кодека : avc1
Идентификатор кодека/Информация : Advanced Video Coding
Продолжительность : 24 м. 20 с.
Битрейт : 512 Кбит/сек
Максимальный битрейт : 2911 Кбит/сек
Ширина : 480 пикселей
Высота : 272 пикселя
Соотношение сторон : 16:9
Режим частоты кадров : Постоянный
Частота кадров : 29,970 (30000/1001) кадров/сек
Частота кадров в оригинале : 29,970 (29970/1000) кадров/сек
Цветовое пространство : YUV
Субдискретизация насыщенности : 4:2:0
Битовая глубина : 8 бит
Тип развёртки : Прогрессивная
Бит/(Пиксели*Кадры) : 0.131
Размер потока : 89,1 Мбайт (79%)
Библиотека кодирования : x264 core 58 svn-736
Настройки программы : cabac=1 / ref=2 / deblock=1:-2:-1 / analyse=0x1:0x131 / me=umh / subme=7 / brdo=1 / mixed_ref=1 / me_range=16 / chroma_me=1 / trellis=2 / 8x8dct=0 / cqm=0 / deadzone=21,11 / chroma_qp_offset=0 / threads=2 / nr=0 / decimate=0 / mbaff=0 / bframes=3 / b_pyramid=0 / b_adapt=1 / b_bias=0 / direct=3 / wpredb=1 / bime=1 / keyint=250 / keyint_min=25 / scenecut=40(pre) / rc=2pass / bitrate=512 / ratetol=1.0 / rceq='blurCplx^(1-qComp)' / qcomp=0.60 / qpmin=10 / qpmax=51 / qpstep=4 / cplxblur=20.0 / qblur=0.5 / ip_ratio=1.40 / pb_ratio=1.30
Дата кодирования : UTC 2009-03-03 21:08:28
Дата пометки : UTC 2009-03-03 21:08:30

Аудио
Идентификатор : 2
Формат : AAC
Формат/Информация : Advanced Audio Codec
Профиль формата : LC
Идентификатор кодека : mp4a-40-2
Продолжительность : 24 м. 20 с.
Вид битрейта : Переменный
Битрейт : 129 Кбит/сек
Максимальный битрейт : 169 Кбит/сек
Каналы : 2 канала
Расположение каналов : Front: L R
Частота : 48,0 КГц
Частота кадров : 46,875 кадров/сек (1024 SPF)
Метод сжатия : С потерями
Размер потока : 22,4 Мбайт (20%)
Дата кодирования : UTC 2009-03-03 21:08:30
Дата пометки : UTC 2009-03-03 21:08:30

Общее
Полное имя : C:\torrents\[ANIME4PSP] Gungrave\17. Mika.mp4
Формат : MPEG-4
Профиль формата : Base Media
Идентификатор кодека : isom (isom/avc1)
Размер файла : 112 Мбайт
Продолжительность : 24 м. 23 с.
Режим общего битрейта : Переменный
Общий поток : 644 Кбит/сек
Дата кодирования : UTC 2009-03-04 06:09:11
Дата пометки : UTC 2009-03-04 06:09:11

Видео
Идентификатор : 1
Формат : AVC
Формат/Информация : Advanced Video Codec
Профиль формата : [email protected]
Настройки формата : CABAC / 2 Ref Frames
Параметр CABAC формата : Да
Параметр RefFrames формата : 2 кадра
Идентификатор кодека : avc1
Идентификатор кодека/Информация : Advanced Video Coding
Продолжительность : 24 м. 23 с.
Битрейт : 512 Кбит/сек
Максимальный битрейт : 2142 Кбит/сек
Ширина : 480 пикселей
Высота : 272 пикселя
Соотношение сторон : 16:9
Режим частоты кадров : Постоянный
Частота кадров : 29,970 (30000/1001) кадров/сек
Частота кадров в оригинале : 29,970 (29970/1000) кадров/сек
Цветовое пространство : YUV
Субдискретизация насыщенности : 4:2:0
Битовая глубина : 8 бит
Тип развёртки : Прогрессивная
Бит/(Пиксели*Кадры) : 0.131
Размер потока : 89,3 Мбайт (79%)
Библиотека кодирования : x264 core 58 svn-736
Настройки программы : cabac=1 / ref=2 / deblock=1:-2:-1 / analyse=0x1:0x131 / me=umh / subme=7 / brdo=1 / mixed_ref=1 / me_range=16 / chroma_me=1 / trellis=2 / 8x8dct=0 / cqm=0 / deadzone=21,11 / chroma_qp_offset=0 / threads=2 / nr=0 / decimate=0 / mbaff=0 / bframes=3 / b_pyramid=0 / b_adapt=1 / b_bias=0 / direct=3 / wpredb=1 / bime=1 / keyint=250 / keyint_min=25 / scenecut=40(pre) / rc=2pass / bitrate=512 / ratetol=1.0 / rceq='blurCplx^(1-qComp)' / qcomp=0.60 / qpmin=10 / qpmax=51 / qpstep=4 / cplxblur=20.0 / qblur=0.5 / ip_ratio=1.40 / pb_ratio=1.30
Дата кодирования : UTC 2009-03-04 06:09:11
Дата пометки : UTC 2009-03-04 06:09:13

Аудио
Идентификатор : 2
Формат : AAC
Формат/Информация : Advanced Audio Codec
Профиль формата : LC
Идентификатор кодека : mp4a-40-2
Продолжительность : 24 м. 23 с.
Вид битрейта : Переменный
Битрейт : 129 Кбит/сек
Максимальный битрейт : 179 Кбит/сек
Каналы : 2 канала
Расположение каналов : Front: L R
Частота : 48,0 КГц
Частота кадров : 46,875 кадров/сек (1024 SPF)
Метод сжатия : С потерями
Размер потока : 22,4 Мбайт (20%)
Дата кодирования : UTC 2009-03-04 06:09:12
Дата пометки : UTC 2009-03-04 06:09:13

Общее
Полное имя : C:\torrents\[ANIME4PSP] Gungrave\18. Grave.mp4
Формат : MPEG-4
Профиль формата : Base Media
Идентификатор кодека : isom (isom/avc1)
Размер файла : 112 Мбайт
Продолжительность : 24 м. 20 с.
Режим общего битрейта : Переменный
Общий поток : 645 Кбит/сек
Дата кодирования : UTC 2009-03-04 06:40:20
Дата пометки : UTC 2009-03-04 06:40:20

Видео
Идентификатор : 1
Формат : AVC
Формат/Информация : Advanced Video Codec
Профиль формата : [email protected]
Настройки формата : CABAC / 2 Ref Frames
Параметр CABAC формата : Да
Параметр RefFrames формата : 2 кадра
Идентификатор кодека : avc1
Идентификатор кодека/Информация : Advanced Video Coding
Продолжительность : 24 м. 20 с.
Битрейт : 512 Кбит/сек
Максимальный битрейт : 2143 Кбит/сек
Ширина : 480 пикселей
Высота : 272 пикселя
Соотношение сторон : 16:9
Режим частоты кадров : Постоянный
Частота кадров : 29,970 (30000/1001) кадров/сек
Частота кадров в оригинале : 29,970 (29970/1000) кадров/сек
Цветовое пространство : YUV
Субдискретизация насыщенности : 4:2:0
Битовая глубина : 8 бит
Тип развёртки : Прогрессивная
Бит/(Пиксели*Кадры) : 0.131
Размер потока : 89,1 Мбайт (79%)
Библиотека кодирования : x264 core 58 svn-736
Настройки программы : cabac=1 / ref=2 / deblock=1:-2:-1 / analyse=0x1:0x131 / me=umh / subme=7 / brdo=1 / mixed_ref=1 / me_range=16 / chroma_me=1 / trellis=2 / 8x8dct=0 / cqm=0 / deadzone=21,11 / chroma_qp_offset=0 / threads=2 / nr=0 / decimate=0 / mbaff=0 / bframes=3 / b_pyramid=0 / b_adapt=1 / b_bias=0 / direct=3 / wpredb=1 / bime=1 / keyint=250 / keyint_min=25 / scenecut=40(pre) / rc=2pass / bitrate=512 / ratetol=1.0 / rceq='blurCplx^(1-qComp)' / qcomp=0.60 / qpmin=10 / qpmax=51 / qpstep=4 / cplxblur=20.0 / qblur=0.5 / ip_ratio=1.40 / pb_ratio=1.30
Дата кодирования : UTC 2009-03-04 06:40:20
Дата пометки : UTC 2009-03-04 06:40:22

Аудио
Идентификатор : 2
Формат : AAC
Формат/Информация : Advanced Audio Codec
Профиль формата : LC
Идентификатор кодека : mp4a-40-2
Продолжительность : 24 м. 20 с.
Вид битрейта : Переменный
Битрейт : 129 Кбит/сек
Максимальный битрейт : 168 Кбит/сек
Каналы : 2 канала
Расположение каналов : Front: L R
Частота : 48,0 КГц
Частота кадров : 46,875 кадров/сек (1024 SPF)
Метод сжатия : С потерями
Размер потока : 22,5 Мбайт (20%)
Дата кодирования : UTC 2009-03-04 06:40:22
Дата пометки : UTC 2009-03-04 06:40:22

Общее
Полное имя : C:\torrents\[ANIME4PSP] Gungrave\19. Superior.mp4
Формат : MPEG-4
Профиль формата : Base Media
Идентификатор кодека : isom (isom/avc1)
Размер файла : 112 Мбайт
Продолжительность : 24 м. 23 с.
Режим общего битрейта : Переменный
Общий поток : 644 Кбит/сек
Дата кодирования : UTC 2009-03-04 07:10:38
Дата пометки : UTC 2009-03-04 07:10:38

Видео
Идентификатор : 1
Формат : AVC
Формат/Информация : Advanced Video Codec
Профиль формата : [email protected]
Настройки формата : CABAC / 2 Ref Frames
Параметр CABAC формата : Да
Параметр RefFrames формата : 2 кадра
Идентификатор кодека : avc1
Идентификатор кодека/Информация : Advanced Video Coding
Продолжительность : 24 м. 23 с.
Битрейт : 512 Кбит/сек
Максимальный битрейт : 2597 Кбит/сек
Ширина : 480 пикселей
Высота : 272 пикселя
Соотношение сторон : 16:9
Режим частоты кадров : Постоянный
Частота кадров : 29,970 (30000/1001) кадров/сек
Частота кадров в оригинале : 29,970 (29970/1000) кадров/сек
Цветовое пространство : YUV
Субдискретизация насыщенности : 4:2:0
Битовая глубина : 8 бит
Тип развёртки : Прогрессивная
Бит/(Пиксели*Кадры) : 0.131
Размер потока : 89,3 Мбайт (79%)
Библиотека кодирования : x264 core 58 svn-736
Настройки программы : cabac=1 / ref=2 / deblock=1:-2:-1 / analyse=0x1:0x131 / me=umh / subme=7 / brdo=1 / mixed_ref=1 / me_range=16 / chroma_me=1 / trellis=2 / 8x8dct=0 / cqm=0 / deadzone=21,11 / chroma_qp_offset=0 / threads=2 / nr=0 / decimate=0 / mbaff=0 / bframes=3 / b_pyramid=0 / b_adapt=1 / b_bias=0 / direct=3 / wpredb=1 / bime=1 / keyint=250 / keyint_min=25 / scenecut=40(pre) / rc=2pass / bitrate=512 / ratetol=1.0 / rceq='blurCplx^(1-qComp)' / qcomp=0.60 / qpmin=10 / qpmax=51 / qpstep=4 / cplxblur=20.0 / qblur=0.5 / ip_ratio=1.40 / pb_ratio=1.30
Дата кодирования : UTC 2009-03-04 07:10:38
Дата пометки : UTC 2009-03-04 07:10:40

Аудио
Идентификатор : 2
Формат : AAC
Формат/Информация : Advanced Audio Codec
Профиль формата : LC
Идентификатор кодека : mp4a-40-2
Продолжительность : 24 м. 23 с.
Вид битрейта : Переменный
Битрейт : 129 Кбит/сек
Максимальный битрейт : 172 Кбит/сек
Каналы : 2 канала
Расположение каналов : Front: L R
Частота : 48,0 КГц
Частота кадров : 46,875 кадров/сек (1024 SPF)
Метод сжатия : С потерями
Размер потока : 22,4 Мбайт (20%)
Дата кодирования : UTC 2009-03-04 07:10:39
Дата пометки : UTC 2009-03-04 07:10:40

Общее
Полное имя : C:\torrents\[ANIME4PSP] Gungrave\20. Brother.mp4
Формат : MPEG-4
Профиль формата : Base Media
Идентификатор кодека : isom (isom/avc1)
Размер файла : 112 Мбайт
Продолжительность : 24 м. 22 с.
Режим общего битрейта : Переменный
Общий поток : 644 Кбит/сек
Дата кодирования : UTC 2009-03-04 07:40:46
Дата пометки : UTC 2009-03-04 07:40:46

Видео
Идентификатор : 1
Формат : AVC
Формат/Информация : Advanced Video Codec
Профиль формата : [email protected]
Настройки формата : CABAC / 2 Ref Frames
Параметр CABAC формата : Да
Параметр RefFrames формата : 2 кадра
Идентификатор кодека : avc1
Идентификатор кодека/Информация : Advanced Video Coding
Продолжительность : 24 м. 22 с.
Битрейт : 512 Кбит/сек
Максимальный битрейт : 2239 Кбит/сек
Ширина : 480 пикселей
Высота : 272 пикселя
Соотношение сторон : 16:9
Режим частоты кадров : Постоянный
Частота кадров : 29,970 (30000/1001) кадров/сек
Частота кадров в оригинале : 29,970 (29970/1000) кадров/сек
Цветовое пространство : YUV
Субдискретизация насыщенности : 4:2:0
Битовая глубина : 8 бит
Тип развёртки : Прогрессивная
Бит/(Пиксели*Кадры) : 0.131
Размер потока : 89,3 Мбайт (79%)
Библиотека кодирования : x264 core 58 svn-736
Настройки программы : cabac=1 / ref=2 / deblock=1:-2:-1 / analyse=0x1:0x131 / me=umh / subme=7 / brdo=1 / mixed_ref=1 / me_range=16 / chroma_me=1 / trellis=2 / 8x8dct=0 / cqm=0 / deadzone=21,11 / chroma_qp_offset=0 / threads=2 / nr=0 / decimate=0 / mbaff=0 / bframes=3 / b_pyramid=0 / b_adapt=1 / b_bias=0 / direct=3 / wpredb=1 / bime=1 / keyint=250 / keyint_min=25 / scenecut=40(pre) / rc=2pass / bitrate=512 / ratetol=1.0 / rceq='blurCplx^(1-qComp)' / qcomp=0.60 / qpmin=10 / qpmax=51 / qpstep=4 / cplxblur=20.0 / qblur=0.5 / ip_ratio=1.40 / pb_ratio=1.30
Дата кодирования : UTC 2009-03-04 07:40:46
Дата пометки : UTC 2009-03-04 07:40:48

Аудио
Идентификатор : 2
Формат : AAC
Формат/Информация : Advanced Audio Codec
Профиль формата : LC
Идентификатор кодека : mp4a-40-2
Продолжительность : 24 м. 22 с.
Вид битрейта : Переменный
Битрейт : 129 Кбит/сек
Максимальный битрейт : 174 Кбит/сек
Каналы : 2 канала
Расположение каналов : Front: L R
Частота : 48,0 КГц
Частота кадров : 46,875 кадров/сек (1024 SPF)
Метод сжатия : С потерями
Размер потока : 22,5 Мбайт (20%)
Дата кодирования : UTC 2009-03-04 07:40:47
Дата пометки : UTC 2009-03-04 07:40:48

Общее
Полное имя : C:\torrents\[ANIME4PSP] Gungrave\21. Duty.mp4
Формат : MPEG-4
Профиль формата : Base Media
Идентификатор кодека : isom (isom/avc1)
Размер файла : 112 Мбайт
Продолжительность : 24 м. 22 с.
Режим общего битрейта : Переменный
Общий поток : 644 Кбит/сек
Дата кодирования : UTC 2009-03-04 08:11:25
Дата пометки : UTC 2009-03-04 08:11:25

Видео
Идентификатор : 1
Формат : AVC
Формат/Информация : Advanced Video Codec
Профиль формата : [email protected]
Настройки формата : CABAC / 2 Ref Frames
Параметр CABAC формата : Да
Параметр RefFrames формата : 2 кадра
Идентификатор кодека : avc1
Идентификатор кодека/Информация : Advanced Video Coding
Продолжительность : 24 м. 22 с.
Битрейт : 512 Кбит/сек
Максимальный битрейт : 2742 Кбит/сек
Ширина : 480 пикселей
Высота : 272 пикселя
Соотношение сторон : 16:9
Режим частоты кадров : Постоянный
Частота кадров : 29,970 (30000/1001) кадров/сек
Частота кадров в оригинале : 29,970 (29970/1000) кадров/сек
Цветовое пространство : YUV
Субдискретизация насыщенности : 4:2:0
Битовая глубина : 8 бит
Тип развёртки : Прогрессивная
Бит/(Пиксели*Кадры) : 0.131
Размер потока : 89,3 Мбайт (79%)
Библиотека кодирования : x264 core 58 svn-736
Настройки программы : cabac=1 / ref=2 / deblock=1:-2:-1 / analyse=0x1:0x131 / me=umh / subme=7 / brdo=1 / mixed_ref=1 / me_range=16 / chroma_me=1 / trellis=2 / 8x8dct=0 / cqm=0 / deadzone=21,11 / chroma_qp_offset=0 / threads=2 / nr=0 / decimate=0 / mbaff=0 / bframes=3 / b_pyramid=0 / b_adapt=1 / b_bias=0 / direct=3 / wpredb=1 / bime=1 / keyint=250 / keyint_min=25 / scenecut=40(pre) / rc=2pass / bitrate=512 / ratetol=1.0 / rceq='blurCplx^(1-qComp)' / qcomp=0.60 / qpmin=10 / qpmax=51 / qpstep=4 / cplxblur=20.0 / qblur=0.5 / ip_ratio=1.40 / pb_ratio=1.30
Дата кодирования : UTC 2009-03-04 08:11:25
Дата пометки : UTC 2009-03-04 08:11:27

Аудио
Идентификатор : 2
Формат : AAC
Формат/Информация : Advanced Audio Codec
Профиль формата : LC
Идентификатор кодека : mp4a-40-2
Продолжительность : 24 м. 22 с.
Вид битрейта : Переменный
Битрейт : 129 Кбит/сек
Максимальный битрейт : 179 Кбит/сек
Каналы : 2 канала
Расположение каналов : Front: L R
Частота : 48,0 КГц
Частота кадров : 46,875 кадров/сек (1024 SPF)
Метод сжатия : С потерями
Размер потока : 22,4 Мбайт (20%)
Дата кодирования : UTC 2009-03-04 08:11:27
Дата пометки : UTC 2009-03-04 08:11:27

Общее
Полное имя : C:\torrents\[ANIME4PSP] Gungrave\22. Remorse.mp4
Формат : MPEG-4
Профиль формата : Base Media
Идентификатор кодека : isom (isom/avc1)
Размер файла : 112 Мбайт
Продолжительность : 24 м. 20 с.
Режим общего битрейта : Переменный
Общий поток : 645 Кбит/сек
Дата кодирования : UTC 2009-03-04 08:41:17
Дата пометки : UTC 2009-03-04 08:41:17

Видео
Идентификатор : 1
Формат : AVC
Формат/Информация : Advanced Video Codec
Профиль формата : [email protected]
Настройки формата : CABAC / 2 Ref Frames
Параметр CABAC формата : Да
Параметр RefFrames формата : 2 кадра
Идентификатор кодека : avc1
Идентификатор кодека/Информация : Advanced Video Coding
Продолжительность : 24 м. 20 с.
Битрейт : 512 Кбит/сек
Максимальный битрейт : 2378 Кбит/сек
Ширина : 480 пикселей
Высота : 272 пикселя
Соотношение сторон : 16:9
Режим частоты кадров : Постоянный
Частота кадров : 29,970 (30000/1001) кадров/сек
Частота кадров в оригинале : 29,970 (29970/1000) кадров/сек
Цветовое пространство : YUV
Субдискретизация насыщенности : 4:2:0
Битовая глубина : 8 бит
Тип развёртки : Прогрессивная
Бит/(Пиксели*Кадры) : 0.131
Размер потока : 89,1 Мбайт (79%)
Библиотека кодирования : x264 core 58 svn-736
Настройки программы : cabac=1 / ref=2 / deblock=1:-2:-1 / analyse=0x1:0x131 / me=umh / subme=7 / brdo=1 / mixed_ref=1 / me_range=16 / chroma_me=1 / trellis=2 / 8x8dct=0 / cqm=0 / deadzone=21,11 / chroma_qp_offset=0 / threads=2 / nr=0 / decimate=0 / mbaff=0 / bframes=3 / b_pyramid=0 / b_adapt=1 / b_bias=0 / direct=3 / wpredb=1 / bime=1 / keyint=250 / keyint_min=25 / scenecut=40(pre) / rc=2pass / bitrate=512 / ratetol=1.0 / rceq='blurCplx^(1-qComp)' / qcomp=0.60 / qpmin=10 / qpmax=51 / qpstep=4 / cplxblur=20.0 / qblur=0.5 / ip_ratio=1.40 / pb_ratio=1.30
Дата кодирования : UTC 2009-03-04 08:41:17
Дата пометки : UTC 2009-03-04 08:41:19

Аудио
Идентификатор : 2
Формат : AAC
Формат/Информация : Advanced Audio Codec
Профиль формата : LC
Идентификатор кодека : mp4a-40-2
Продолжительность : 24 м. 20 с.
Вид битрейта : Переменный
Битрейт : 129 Кбит/сек
Максимальный битрейт : 174 Кбит/сек
Каналы : 2 канала
Расположение каналов : Front: L R
Частота : 48,0 КГц
Частота кадров : 46,875 кадров/сек (1024 SPF)
Метод сжатия : С потерями
Размер потока : 22,5 Мбайт (20%)
Дата кодирования : UTC 2009-03-04 08:41:18
Дата пометки : UTC 2009-03-04 08:41:19

Общее
Полное имя : C:\torrents\[ANIME4PSP] Gungrave\23. Daughter.mp4
Формат : MPEG-4
Профиль формата : Base Media
Идентификатор кодека : isom (isom/avc1)
Размер файла : 112 Мбайт
Продолжительность : 24 м. 24 с.
Режим общего битрейта : Переменный
Общий поток : 644 Кбит/сек
Дата кодирования : UTC 2009-03-04 09:12:54
Дата пометки : UTC 2009-03-04 09:12:54

Видео
Идентификатор : 1
Формат : AVC
Формат/Информация : Advanced Video Codec
Профиль формата : [email protected]
Настройки формата : CABAC / 2 Ref Frames
Параметр CABAC формата : Да
Параметр RefFrames формата : 2 кадра
Идентификатор кодека : avc1
Идентификатор кодека/Информация : Advanced Video Coding
Продолжительность : 24 м. 24 с.
Битрейт : 512 Кбит/сек
Максимальный битрейт : 2296 Кбит/сек
Ширина : 480 пикселей
Высота : 272 пикселя
Соотношение сторон : 16:9
Режим частоты кадров : Постоянный
Частота кадров : 29,970 (30000/1001) кадров/сек
Частота кадров в оригинале : 29,970 (29970/1000) кадров/сек
Цветовое пространство : YUV
Субдискретизация насыщенности : 4:2:0
Битовая глубина : 8 бит
Тип развёртки : Прогрессивная
Бит/(Пиксели*Кадры) : 0.131
Размер потока : 89,3 Мбайт (79%)
Библиотека кодирования : x264 core 58 svn-736
Настройки программы : cabac=1 / ref=2 / deblock=1:-2:-1 / analyse=0x1:0x131 / me=umh / subme=7 / brdo=1 / mixed_ref=1 / me_range=16 / chroma_me=1 / trellis=2 / 8x8dct=0 / cqm=0 / deadzone=21,11 / chroma_qp_offset=0 / threads=2 / nr=0 / decimate=0 / mbaff=0 / bframes=3 / b_pyramid=0 / b_adapt=1 / b_bias=0 / direct=3 / wpredb=1 / bime=1 / keyint=250 / keyint_min=25 / scenecut=40(pre) / rc=2pass / bitrate=512 / ratetol=1.0 / rceq='blurCplx^(1-qComp)' / qcomp=0.60 / qpmin=10 / qpmax=51 / qpstep=4 / cplxblur=20.0 / qblur=0.5 / ip_ratio=1.40 / pb_ratio=1.30
Дата кодирования : UTC 2009-03-04 09:12:54
Дата пометки : UTC 2009-03-04 09:12:55

Аудио
Идентификатор : 2
Формат : AAC
Формат/Информация : Advanced Audio Codec
Профиль формата : LC
Идентификатор кодека : mp4a-40-2
Продолжительность : 24 м. 24 с.
Вид битрейта : Переменный
Битрейт : 129 Кбит/сек
Максимальный битрейт : 179 Кбит/сек
Каналы : 2 канала
Расположение каналов : Front: L R
Частота : 48,0 КГц
Частота кадров : 46,875 кадров/сек (1024 SPF)
Метод сжатия : С потерями
Размер потока : 22,5 Мбайт (20%)
Дата кодирования : UTC 2009-03-04 09:12:55
Дата пометки : UTC 2009-03-04 09:12:55

Общее
Полное имя : C:\torrents\[ANIME4PSP] Gungrave\24. Last Bullet.mp4
Формат : MPEG-4
Профиль формата : Base Media
Идентификатор кодека : isom (isom/avc1)
Размер файла : 112 Мбайт
Продолжительность : 24 м. 22 с.
Режим общего битрейта : Переменный
Общий поток : 644 Кбит/сек
Дата кодирования : UTC 2009-03-04 09:43:36
Дата пометки : UTC 2009-03-04 09:43:36

Видео
Идентификатор : 1
Формат : AVC
Формат/Информация : Advanced Video Codec
Профиль формата : [email protected]
Настройки формата : CABAC / 2 Ref Frames
Параметр CABAC формата : Да
Параметр RefFrames формата : 2 кадра
Идентификатор кодека : avc1
Идентификатор кодека/Информация : Advanced Video Coding
Продолжительность : 24 м. 22 с.
Битрейт : 512 Кбит/сек
Максимальный битрейт : 2162 Кбит/сек
Ширина : 480 пикселей
Высота : 272 пикселя
Соотношение сторон : 16:9
Режим частоты кадров : Постоянный
Частота кадров : 29,970 (30000/1001) кадров/сек
Частота кадров в оригинале : 29,970 (29970/1000) кадров/сек
Цветовое пространство : YUV
Субдискретизация насыщенности : 4:2:0
Битовая глубина : 8 бит
Тип развёртки : Прогрессивная
Бит/(Пиксели*Кадры) : 0.131
Размер потока : 89,2 Мбайт (79%)
Библиотека кодирования : x264 core 58 svn-736
Настройки программы : cabac=1 / ref=2 / deblock=1:-2:-1 / analyse=0x1:0x131 / me=umh / subme=7 / brdo=1 / mixed_ref=1 / me_range=16 / chroma_me=1 / trellis=2 / 8x8dct=0 / cqm=0 / deadzone=21,11 / chroma_qp_offset=0 / threads=2 / nr=0 / decimate=0 / mbaff=0 / bframes=3 / b_pyramid=0 / b_adapt=1 / b_bias=0 / direct=3 / wpredb=1 / bime=1 / keyint=250 / keyint_min=25 / scenecut=40(pre) / rc=2pass / bitrate=512 / ratetol=1.0 / rceq='blurCplx^(1-qComp)' / qcomp=0.60 / qpmin=10 / qpmax=51 / qpstep=4 / cplxblur=20.0 / qblur=0.5 / ip_ratio=1.40 / pb_ratio=1.30
Дата кодирования : UTC 2009-03-04 09:43:36
Дата пометки : UTC 2009-03-04 09:43:38

Аудио
Идентификатор : 2
Формат : AAC
Формат/Информация : Advanced Audio Codec
Профиль формата : LC
Идентификатор кодека : mp4a-40-2
Продолжительность : 24 м. 22 с.
Вид битрейта : Переменный
Битрейт : 129 Кбит/сек
Максимальный битрейт : 178 Кбит/сек
Каналы : 2 канала
Расположение каналов : Front: L R
Частота : 48,0 КГц
Частота кадров : 46,875 кадров/сек (1024 SPF)
Метод сжатия : С потерями
Размер потока : 22,5 Мбайт (20%)
Дата кодирования : UTC 2009-03-04 09:43:37
Дата пометки : UTC 2009-03-04 09:43:38

Общее
Полное имя : C:\torrents\[ANIME4PSP] Gungrave\25. Then.mp4
Формат : MPEG-4
Профиль формата : Base Media
Идентификатор кодека : isom (isom/avc1)
Размер файла : 112 Мбайт
Продолжительность : 24 м. 23 с.
Режим общего битрейта : Переменный
Общий поток : 644 Кбит/сек
Дата кодирования : UTC 2009-03-04 10:15:04
Дата пометки : UTC 2009-03-04 10:15:04

Видео
Идентификатор : 1
Формат : AVC
Формат/Информация : Advanced Video Codec
Профиль формата : [email protected]
Настройки формата : CABAC / 2 Ref Frames
Параметр CABAC формата : Да
Параметр RefFrames формата : 2 кадра
Идентификатор кодека : avc1
Идентификатор кодека/Информация : Advanced Video Coding
Продолжительность : 24 м. 23 с.
Битрейт : 512 Кбит/сек
Максимальный битрейт : 2578 Кбит/сек
Ширина : 480 пикселей
Высота : 272 пикселя
Соотношение сторон : 16:9
Режим частоты кадров : Постоянный
Частота кадров : 29,970 (30000/1001) кадров/сек
Частота кадров в оригинале : 29,970 (29970/1000) кадров/сек
Цветовое пространство : YUV
Субдискретизация насыщенности : 4:2:0
Битовая глубина : 8 бит
Тип развёртки : Прогрессивная
Бит/(Пиксели*Кадры) : 0.131
Размер потока : 89,3 Мбайт (79%)
Библиотека кодирования : x264 core 58 svn-736
Настройки программы : cabac=1 / ref=2 / deblock=1:-2:-1 / analyse=0x1:0x131 / me=umh / subme=7 / brdo=1 / mixed_ref=1 / me_range=16 / chroma_me=1 / trellis=2 / 8x8dct=0 / cqm=0 / deadzone=21,11 / chroma_qp_offset=0 / threads=2 / nr=0 / decimate=0 / mbaff=0 / bframes=3 / b_pyramid=0 / b_adapt=1 / b_bias=0 / direct=3 / wpredb=1 / bime=1 / keyint=250 / keyint_min=25 / scenecut=40(pre) / rc=2pass / bitrate=512 / ratetol=1.0 / rceq='blurCplx^(1-qComp)' / qcomp=0.60 / qpmin=10 / qpmax=51 / qpstep=4 / cplxblur=20.0 / qblur=0.5 / ip_ratio=1.40 / pb_ratio=1.30
Дата кодирования : UTC 2009-03-04 10:15:04
Дата пометки : UTC 2009-03-04 10:15:06

Аудио
Идентификатор : 2
Формат : AAC
Формат/Информация : Advanced Audio Codec
Профиль формата : LC
Идентификатор кодека : mp4a-40-2
Продолжительность : 24 м. 23 с.
Вид битрейта : Переменный
Битрейт : 129 Кбит/сек
Максимальный битрейт : 169 Кбит/сек
Каналы : 2 канала
Расположение каналов : Front: L R
Частота : 48,0 КГц
Частота кадров : 46,875 кадров/сек (1024 SPF)
Метод сжатия : С потерями
Размер потока : 22,5 Мбайт (20%)
Дата кодирования : UTC 2009-03-04 10:15:05
Дата пометки : UTC 2009-03-04 10:15:06

Общее
Полное имя : C:\torrents\[ANIME4PSP] Gungrave\26. Twilight of the Destroyers.mp4
Формат : MPEG-4
Профиль формата : Base Media
Идентификатор кодека : isom (isom/avc1)
Размер файла : 111 Мбайт
Продолжительность : 24 м. 5 с.
Режим общего битрейта : Переменный
Общий поток : 645 Кбит/сек
Дата кодирования : UTC 2009-03-04 10:44:28
Дата пометки : UTC 2009-03-04 10:44:28

Видео
Идентификатор : 1
Формат : AVC
Формат/Информация : Advanced Video Codec
Профиль формата : [email protected]
Настройки формата : CABAC / 2 Ref Frames
Параметр CABAC формата : Да
Параметр RefFrames формата : 2 кадра
Идентификатор кодека : avc1
Идентификатор кодека/Информация : Advanced Video Coding
Продолжительность : 24 м. 5 с.
Битрейт : 512 Кбит/сек
Максимальный битрейт : 2559 Кбит/сек
Ширина : 480 пикселей
Высота : 272 пикселя
Соотношение сторон : 16:9
Режим частоты кадров : Постоянный
Частота кадров : 29,970 (30000/1001) кадров/сек
Частота кадров в оригинале : 29,970 (29970/1000) кадров/сек
Цветовое пространство : YUV
Субдискретизация насыщенности : 4:2:0
Битовая глубина : 8 бит
Тип развёртки : Прогрессивная
Бит/(Пиксели*Кадры) : 0.131
Размер потока : 88,3 Мбайт (79%)
Библиотека кодирования : x264 core 58 svn-736
Настройки программы : cabac=1 / ref=2 / deblock=1:-2:-1 / analyse=0x1:0x131 / me=umh / subme=7 / brdo=1 / mixed_ref=1 / me_range=16 / chroma_me=1 / trellis=2 / 8x8dct=0 / cqm=0 / deadzone=21,11 / chroma_qp_offset=0 / threads=2 / nr=0 / decimate=0 / mbaff=0 / bframes=3 / b_pyramid=0 / b_adapt=1 / b_bias=0 / direct=3 / wpredb=1 / bime=1 / keyint=250 / keyint_min=25 / scenecut=40(pre) / rc=2pass / bitrate=512 / ratetol=1.0 / rceq='blurCplx^(1-qComp)' / qcomp=0.60 / qpmin=10 / qpmax=51 / qpstep=4 / cplxblur=20.0 / qblur=0.5 / ip_ratio=1.40 / pb_ratio=1.30
Дата кодирования : UTC 2009-03-04 10:44:28
Дата пометки : UTC 2009-03-04 10:44:35

Аудио
Идентификатор : 2
Формат : AAC
Формат/Информация : Advanced Audio Codec
Профиль формата : LC
Идентификатор кодека : mp4a-40-2
Продолжительность : 24 м. 5 с.
Вид битрейта : Переменный
Битрейт : 129 Кбит/сек
Максимальный битрейт : 182 Кбит/сек
Каналы : 2 канала
Расположение каналов : Front: L R
Частота : 48,0 КГц
Частота кадров : 46,875 кадров/сек (1024 SPF)
Метод сжатия : С потерями
Размер потока : 22,3 Мбайт (20%)
Дата кодирования : UTC 2009-03-04 10:44:35
Дата пометки : UTC 2009-03-04 10:44:35

Общее
Полное имя : C:\torrents\[ANIME4PSP] Gungrave\01. Destroyer in the Dusk.mp4
Формат : MPEG-4
Профиль формата : Base Media
Идентификатор кодека : isom (isom/avc1)
Размер файла : 112 Мбайт
Продолжительность : 24 м. 22 с.
Режим общего битрейта : Переменный
Общий поток : 644 Кбит/сек
Дата кодирования : UTC 2009-03-03 21:52:15
Дата пометки : UTC 2009-03-03 21:52:15

Видео
Идентификатор : 1
Формат : AVC
Формат/Информация : Advanced Video Codec
Профиль формата : [email protected]
Настройки формата : CABAC / 2 Ref Frames
Параметр CABAC формата : Да
Параметр RefFrames формата : 2 кадра
Идентификатор кодека : avc1
Идентификатор кодека/Информация : Advanced Video Coding
Продолжительность : 24 м. 22 с.
Битрейт : 512 Кбит/сек
Максимальный битрейт : 2024 Кбит/сек
Ширина : 480 пикселей
Высота : 272 пикселя
Соотношение сторон : 16:9
Режим частоты кадров : Постоянный
Частота кадров : 29,970 (30000/1001) кадров/сек
Частота кадров в оригинале : 29,970 (29970/1000) кадров/сек
Цветовое пространство : YUV
Субдискретизация насыщенности : 4:2:0
Битовая глубина : 8 бит
Тип развёртки : Прогрессивная
Бит/(Пиксели*Кадры) : 0.131
Размер потока : 89,3 Мбайт (79%)
Библиотека кодирования : x264 core 58 svn-736
Настройки программы : cabac=1 / ref=2 / deblock=1:-2:-1 / analyse=0x1:0x131 / me=umh / subme=7 / brdo=1 / mixed_ref=1 / me_range=16 / chroma_me=1 / trellis=2 / 8x8dct=0 / cqm=0 / deadzone=21,11 / chroma_qp_offset=0 / threads=2 / nr=0 / decimate=0 / mbaff=0 / bframes=3 / b_pyramid=0 / b_adapt=1 / b_bias=0 / direct=3 / wpredb=1 / bime=1 / keyint=250 / keyint_min=25 / scenecut=40(pre) / rc=2pass / bitrate=512 / ratetol=1.0 / rceq='blurCplx^(1-qComp)' / qcomp=0.60 / qpmin=10 / qpmax=51 / qpstep=4 / cplxblur=20.0 / qblur=0.5 / ip_ratio=1.40 / pb_ratio=1.30
Дата кодирования : UTC 2009-03-03 21:52:15
Дата пометки : UTC 2009-03-03 21:52:18

Аудио
Идентификатор : 2
Формат : AAC
Формат/Информация : Advanced Audio Codec
Профиль формата : LC
Идентификатор кодека : mp4a-40-2
Продолжительность : 24 м. 22 с.
Вид битрейта : Переменный
Битрейт : 129 Кбит/сек
Максимальный битрейт : 178 Кбит/сек
Каналы : 2 канала
Расположение каналов : Front: L R
Частота : 48,0 КГц
Частота кадров : 46,875 кадров/сек (1024 SPF)
Метод сжатия : С потерями
Размер потока : 22,4 Мбайт (20%)
Дата кодирования : UTC 2009-03-03 21:52:17
Дата пометки : UTC 2009-03-03 21:52:18

Общее
Полное имя : C:\torrents\[ANIME4PSP] Gungrave\02. Young Dogs.mp4
Формат : MPEG-4
Профиль формата : Base Media
Идентификатор кодека : isom (isom/avc1)
Размер файла : 112 Мбайт
Продолжительность : 24 м. 21 с.
Режим общего битрейта : Переменный
Общий поток : 644 Кбит/сек
Дата кодирования : UTC 2009-03-03 22:23:17
Дата пометки : UTC 2009-03-03 22:23:17

Видео
Идентификатор : 1
Формат : AVC
Формат/Информация : Advanced Video Codec
Профиль формата : [email protected]
Настройки формата : CABAC / 2 Ref Frames
Параметр CABAC формата : Да
Параметр RefFrames формата : 2 кадра
Идентификатор кодека : avc1
Идентификатор кодека/Информация : Advanced Video Coding
Продолжительность : 24 м. 21 с.
Битрейт : 512 Кбит/сек
Максимальный битрейт : 2562 Кбит/сек
Ширина : 480 пикселей
Высота : 272 пикселя
Соотношение сторон : 16:9
Режим частоты кадров : Постоянный
Частота кадров : 29,970 (30000/1001) кадров/сек
Частота кадров в оригинале : 29,970 (29970/1000) кадров/сек
Цветовое пространство : YUV
Субдискретизация насыщенности : 4:2:0
Битовая глубина : 8 бит
Тип развёртки : Прогрессивная
Бит/(Пиксели*Кадры) : 0.131
Размер потока : 89,2 Мбайт (79%)
Библиотека кодирования : x264 core 58 svn-736
Настройки программы : cabac=1 / ref=2 / deblock=1:-2:-1 / analyse=0x1:0x131 / me=umh / subme=7 / brdo=1 / mixed_ref=1 / me_range=16 / chroma_me=1 / trellis=2 / 8x8dct=0 / cqm=0 / deadzone=21,11 / chroma_qp_offset=0 / threads=2 / nr=0 / decimate=0 / mbaff=0 / bframes=3 / b_pyramid=0 / b_adapt=1 / b_bias=0 / direct=3 / wpredb=1 / bime=1 / keyint=250 / keyint_min=25 / scenecut=40(pre) / rc=2pass / bitrate=512 / ratetol=1.0 / rceq='blurCplx^(1-qComp)' / qcomp=0.60 / qpmin=10 / qpmax=51 / qpstep=4 / cplxblur=20.0 / qblur=0.5 / ip_ratio=1.40 / pb_ratio=1.30
Дата кодирования : UTC 2009-03-03 22:23:17
Дата пометки : UTC 2009-03-03 22:23:19

Аудио
Идентификатор : 2
Формат : AAC
Формат/Информация : Advanced Audio Codec
Профиль формата : LC
Идентификатор кодека : mp4a-40-2
Продолжительность : 24 м. 21 с.
Вид битрейта : Переменный
Битрейт : 129 Кбит/сек
Максимальный битрейт : 172 Кбит/сек
Каналы : 2 канала
Расположение каналов : Front: L R
Частота : 48,0 КГц
Частота кадров : 46,875 кадров/сек (1024 SPF)
Метод сжатия : С потерями
Размер потока : 22,4 Мбайт (20%)
Дата кодирования : UTC 2009-03-03 22:23:19
Дата пометки : UTC 2009-03-03 22:23:19

Общее
Полное имя : C:\torrents\[ANIME4PSP] Gungrave\03. Rain.mp4
Формат : MPEG-4
Профиль формата : Base Media
Идентификатор кодека : isom (isom/avc1)
Размер файла : 112 Мбайт
Продолжительность : 24 м. 21 с.
Режим общего битрейта : Переменный
Общий поток : 644 Кбит/сек
Дата кодирования : UTC 2009-03-03 23:09:33
Дата пометки : UTC 2009-03-03 23:09:33

Видео
Идентификатор : 1
Формат : AVC
Формат/Информация : Advanced Video Codec
Профиль формата : [email protected]
Настройки формата : CABAC / 2 Ref Frames
Параметр CABAC формата : Да
Параметр RefFrames формата : 2 кадра
Идентификатор кодека : avc1
Идентификатор кодека/Информация : Advanced Video Coding
Продолжительность : 24 м. 21 с.
Битрейт : 512 Кбит/сек
Максимальный битрейт : 2756 Кбит/сек
Ширина : 480 пикселей
Высота : 272 пикселя
Соотношение сторон : 16:9
Режим частоты кадров : Постоянный
Частота кадров : 29,970 (30000/1001) кадров/сек
Частота кадров в оригинале : 29,970 (29970/1000) кадров/сек
Цветовое пространство : YUV
Субдискретизация насыщенности : 4:2:0
Битовая глубина : 8 бит
Тип развёртки : Прогрессивная
Бит/(Пиксели*Кадры) : 0.131
Размер потока : 89,2 Мбайт (79%)
Библиотека кодирования : x264 core 58 svn-736
Настройки программы : cabac=1 / ref=2 / deblock=1:-2:-1 / analyse=0x1:0x131 / me=umh / subme=7 / brdo=1 / mixed_ref=1 / me_range=16 / chroma_me=1 / trellis=2 / 8x8dct=0 / cqm=0 / deadzone=21,11 / chroma_qp_offset=0 / threads=2 / nr=0 / decimate=0 / mbaff=0 / bframes=3 / b_pyramid=0 / b_adapt=1 / b_bias=0 / direct=3 / wpredb=1 / bime=1 / keyint=250 / keyint_min=25 / scenecut=40(pre) / rc=2pass / bitrate=512 / ratetol=1.0 / rceq='blurCplx^(1-qComp)' / qcomp=0.60 / qpmin=10 / qpmax=51 / qpstep=4 / cplxblur=20.0 / qblur=0.5 / ip_ratio=1.40 / pb_ratio=1.30
Дата кодирования : UTC 2009-03-03 23:09:33
Дата пометки : UTC 2009-03-03 23:09:46

Аудио
Идентификатор : 2
Формат : AAC
Формат/Информация : Advanced Audio Codec
Профиль формата : LC
Идентификатор кодека : mp4a-40-2
Продолжительность : 24 м. 21 с.
Вид битрейта : Переменный
Битрейт : 129 Кбит/сек
Максимальный битрейт : 169 Кбит/сек
Каналы : 2 канала
Расположение каналов : Front: L R
Частота : 48,0 КГц
Частота кадров : 46,875 кадров/сек (1024 SPF)
Метод сжатия : С потерями
Размер потока : 22,4 Мбайт (20%)
Дата кодирования : UTC 2009-03-03 23:09:45
Дата пометки : UTC 2009-03-03 23:09:46

Общее
Полное имя : C:\torrents\[ANIME4PSP] Gungrave\04. Go.mp4
Формат : MPEG-4
Профиль формата : Base Media
Идентификатор кодека : isom (isom/avc1)
Размер файла : 112 Мбайт
Продолжительность : 24 м. 21 с.
Режим общего битрейта : Переменный
Общий поток : 644 Кбит/сек
Дата кодирования : UTC 2009-03-03 23:45:16
Дата пометки : UTC 2009-03-03 23:45:16

Видео
Идентификатор : 1
Формат : AVC
Формат/Информация : Advanced Video Codec
Профиль формата : [email protected]
Настройки формата : CABAC / 2 Ref Frames
Параметр CABAC формата : Да
Параметр RefFrames формата : 2 кадра
Идентификатор кодека : avc1
Идентификатор кодека/Информация : Advanced Video Coding
Продолжительность : 24 м. 21 с.
Битрейт : 512 Кбит/сек
Максимальный битрейт : 2395 Кбит/сек
Ширина : 480 пикселей
Высота : 272 пикселя
Соотношение сторон : 16:9
Режим частоты кадров : Постоянный
Частота кадров : 29,970 (30000/1001) кадров/сек
Частота кадров в оригинале : 29,970 (29970/1000) кадров/сек
Цветовое пространство : YUV
Субдискретизация насыщенности : 4:2:0
Битовая глубина : 8 бит
Тип развёртки : Прогрессивная
Бит/(Пиксели*Кадры) : 0.131
Размер потока : 89,2 Мбайт (79%)
Библиотека кодирования : x264 core 58 svn-736
Настройки программы : cabac=1 / ref=2 / deblock=1:-2:-1 / analyse=0x1:0x131 / me=umh / subme=7 / brdo=1 / mixed_ref=1 / me_range=16 / chroma_me=1 / trellis=2 / 8x8dct=0 / cqm=0 / deadzone=21,11 / chroma_qp_offset=0 / threads=2 / nr=0 / decimate=0 / mbaff=0 / bframes=3 / b_pyramid=0 / b_adapt=1 / b_bias=0 / direct=3 / wpredb=1 / bime=1 / keyint=250 / keyint_min=25 / scenecut=40(pre) / rc=2pass / bitrate=512 / ratetol=1.0 / rceq='blurCplx^(1-qComp)' / qcomp=0.60 / qpmin=10 / qpmax=51 / qpstep=4 / cplxblur=20.0 / qblur=0.5 / ip_ratio=1.40 / pb_ratio=1.30
Дата кодирования : UTC 2009-03-03 23:45:16
Дата пометки : UTC 2009-03-03 23:45:19

Аудио
Идентификатор : 2
Формат : AAC
Формат/Информация : Advanced Audio Codec
Профиль формата : LC
Идентификатор кодека : mp4a-40-2
Продолжительность : 24 м. 21 с.
Вид битрейта : Переменный
Битрейт : 129 Кбит/сек
Максимальный битрейт : 178 Кбит/сек
Каналы : 2 канала
Расположение каналов : Front: L R
Частота : 48,0 КГц
Частота кадров : 46,875 кадров/сек (1024 SPF)
Метод сжатия : С потерями
Размер потока : 22,4 Мбайт (20%)
Дата кодирования : UTC 2009-03-03 23:45:19
Дата пометки : UTC 2009-03-03 23:45:19

Общее
Полное имя : C:\torrents\[ANIME4PSP] Gungrave\05. Millennion.mp4
Формат : MPEG-4
Профиль формата : Base Media
Идентификатор кодека : isom (isom/avc1)
Размер файла : 112 Мбайт
Продолжительность : 24 м. 23 с.
Режим общего битрейта : Переменный
Общий поток : 644 Кбит/сек
Дата кодирования : UTC 2009-03-04 00:15:59
Дата пометки : UTC 2009-03-04 00:15:59

Видео
Идентификатор : 1
Формат : AVC
Формат/Информация : Advanced Video Codec
Профиль формата : [email protected]
Настройки формата : CABAC / 2 Ref Frames
Параметр CABAC формата : Да
Параметр RefFrames формата : 2 кадра
Идентификатор кодека : avc1
Идентификатор кодека/Информация : Advanced Video Coding
Продолжительность : 24 м. 23 с.
Битрейт : 512 Кбит/сек
Максимальный битрейт : 2462 Кбит/сек
Ширина : 480 пикселей
Высота : 272 пикселя
Соотношение сторон : 16:9
Режим частоты кадров : Постоянный
Частота кадров : 29,970 (30000/1001) кадров/сек
Частота кадров в оригинале : 29,970 (29970/1000) кадров/сек
Цветовое пространство : YUV
Субдискретизация насыщенности : 4:2:0
Битовая глубина : 8 бит
Тип развёртки : Прогрессивная
Бит/(Пиксели*Кадры) : 0.131
Размер потока : 89,3 Мбайт (79%)
Библиотека кодирования : x264 core 58 svn-736
Настройки программы : cabac=1 / ref=2 / deblock=1:-2:-1 / analyse=0x1:0x131 / me=umh / subme=7 / brdo=1 / mixed_ref=1 / me_range=16 / chroma_me=1 / trellis=2 / 8x8dct=0 / cqm=0 / deadzone=21,11 / chroma_qp_offset=0 / threads=2 / nr=0 / decimate=0 / mbaff=0 / bframes=3 / b_pyramid=0 / b_adapt=1 / b_bias=0 / direct=3 / wpredb=1 / bime=1 / keyint=250 / keyint_min=25 / scenecut=40(pre) / rc=2pass / bitrate=512 / ratetol=1.0 / rceq='blurCplx^(1-qComp)' / qcomp=0.60 / qpmin=10 / qpmax=51 / qpstep=4 / cplxblur=20.0 / qblur=0.5 / ip_ratio=1.40 / pb_ratio=1.30
Дата кодирования : UTC 2009-03-04 00:15:59
Дата пометки : UTC 2009-03-04 00:16:01

Аудио
Идентификатор : 2
Формат : AAC
Формат/Информация : Advanced Audio Codec
Профиль формата : LC
Идентификатор кодека : mp4a-40-2
Продолжительность : 24 м. 23 с.
Вид битрейта : Переменный
Битрейт : 129 Кбит/сек
Максимальный битрейт : 168 Кбит/сек
Каналы : 2 канала
Расположение каналов : Front: L R
Частота : 48,0 КГц
Частота кадров : 46,875 кадров/сек (1024 SPF)
Метод сжатия : С потерями
Размер потока : 22,4 Мбайт (20%)
Дата кодирования : UTC 2009-03-04 00:16:00
Дата пометки : UTC 2009-03-04 00:16:01

Общее
Полное имя : C:\torrents\[ANIME4PSP] Gungrave\06. Big Daddy.mp4
Формат : MPEG-4
Профиль формата : Base Media
Идентификатор кодека : isom (isom/avc1)
Размер файла : 112 Мбайт
Продолжительность : 24 м. 22 с.
Режим общего битрейта : Переменный
Общий поток : 644 Кбит/сек
Дата кодирования : UTC 2009-03-04 00:46:45
Дата пометки : UTC 2009-03-04 00:46:45

Видео
Идентификатор : 1
Формат : AVC
Формат/Информация : Advanced Video Codec
Профиль формата : [email protected]
Настройки формата : CABAC / 2 Ref Frames
Параметр CABAC формата : Да
Параметр RefFrames формата : 2 кадра
Идентификатор кодека : avc1
Идентификатор кодека/Информация : Advanced Video Coding
Продолжительность : 24 м. 22 с.
Битрейт : 512 Кбит/сек
Максимальный битрейт : 2317 Кбит/сек
Ширина : 480 пикселей
Высота : 272 пикселя
Соотношение сторон : 16:9
Режим частоты кадров : Постоянный
Частота кадров : 29,970 (30000/1001) кадров/сек
Частота кадров в оригинале : 29,970 (29970/1000) кадров/сек
Цветовое пространство : YUV
Субдискретизация насыщенности : 4:2:0
Битовая глубина : 8 бит
Тип развёртки : Прогрессивная
Бит/(Пиксели*Кадры) : 0.131
Размер потока : 89,3 Мбайт (79%)
Библиотека кодирования : x264 core 58 svn-736
Настройки программы : cabac=1 / ref=2 / deblock=1:-2:-1 / analyse=0x1:0x131 / me=umh / subme=7 / brdo=1 / mixed_ref=1 / me_range=16 / chroma_me=1 / trellis=2 / 8x8dct=0 / cqm=0 / deadzone=21,11 / chroma_qp_offset=0 / threads=2 / nr=0 / decimate=0 / mbaff=0 / bframes=3 / b_pyramid=0 / b_adapt=1 / b_bias=0 / direct=3 / wpredb=1 / bime=1 / keyint=250 / keyint_min=25 / scenecut=40(pre) / rc=2pass / bitrate=512 / ratetol=1.0 / rceq='blurCplx^(1-qComp)' / qcomp=0.60 / qpmin=10 / qpmax=51 / qpstep=4 / cplxblur=20.0 / qblur=0.5 / ip_ratio=1.40 / pb_ratio=1.30
Дата кодирования : UTC 2009-03-04 00:46:45
Дата пометки : UTC 2009-03-04 00:46:47

Аудио
Идентификатор : 2
Формат : AAC
Формат/Информация : Advanced Audio Codec
Профиль формата : LC
Идентификатор кодека : mp4a-40-2
Продолжительность : 24 м. 22 с.
Вид битрейта : Переменный
Битрейт : 129 Кбит/сек
Максимальный битрейт : 181 Кбит/сек
Каналы : 2 канала
Расположение каналов : Front: L R
Частота : 48,0 КГц
Частота кадров : 46,875 кадров/сек (1024 SPF)
Метод сжатия : С потерями
Размер потока : 22,4 Мбайт (20%)
Дата кодирования : UTC 2009-03-04 00:46:47
Дата пометки : UTC 2009-03-04 00:46:47

Общее
Полное имя : C:\torrents\[ANIME4PSP] Gungrave\07. 5 Years Later.mp4
Формат : MPEG-4
Профиль формата : Base Media
Идентификатор кодека : isom (isom/avc1)
Размер файла : 112 Мбайт
Продолжительность : 24 м. 21 с.
Режим общего битрейта : Переменный
Общий поток : 644 Кбит/сек
Дата кодирования : UTC 2009-03-04 01:17:43
Дата пометки : UTC 2009-03-04 01:17:43

Видео
Идентификатор : 1
Формат : AVC
Формат/Информация : Advanced Video Codec
Профиль формата : [email protected]
Настройки формата : CABAC / 2 Ref Frames
Параметр CABAC формата : Да
Параметр RefFrames формата : 2 кадра
Идентификатор кодека : avc1
Идентификатор кодека/Информация : Advanced Video Coding
Продолжительность : 24 м. 21 с.
Битрейт : 512 Кбит/сек
Максимальный битрейт : 2825 Кбит/сек
Ширина : 480 пикселей
Высота : 272 пикселя
Соотношение сторон : 16:9
Режим частоты кадров : Постоянный
Частота кадров : 29,970 (30000/1001) кадров/сек
Частота кадров в оригинале : 29,970 (29970/1000) кадров/сек
Цветовое пространство : YUV
Субдискретизация насыщенности : 4:2:0
Битовая глубина : 8 бит
Тип развёртки : Прогрессивная
Бит/(Пиксели*Кадры) : 0.131
Размер потока : 89,2 Мбайт (79%)
Библиотека кодирования : x264 core 58 svn-736
Настройки программы : cabac=1 / ref=2 / deblock=1:-2:-1 / analyse=0x1:0x131 / me=umh / subme=7 / brdo=1 / mixed_ref=1 / me_range=16 / chroma_me=1 / trellis=2 / 8x8dct=0 / cqm=0 / deadzone=21,11 / chroma_qp_offset=0 / threads=2 / nr=0 / decimate=0 / mbaff=0 / bframes=3 / b_pyramid=0 / b_adapt=1 / b_bias=0 / direct=3 / wpredb=1 / bime=1 / keyint=250 / keyint_min=25 / scenecut=40(pre) / rc=2pass / bitrate=512 / ratetol=1.0 / rceq='blurCplx^(1-qComp)' / qcomp=0.60 / qpmin=10 / qpmax=51 / qpstep=4 / cplxblur=20.0 / qblur=0.5 / ip_ratio=1.40 / pb_ratio=1.30
Дата кодирования : UTC 2009-03-04 01:17:43
Дата пометки : UTC 2009-03-04 01:17:46

Аудио
Идентификатор : 2
Формат : AAC
Формат/Информация : Advanced Audio Codec
Профиль формата : LC
Идентификатор кодека : mp4a-40-2
Продолжительность : 24 м. 21 с.
Вид битрейта : Переменный
Битрейт : 129 Кбит/сек
Максимальный битрейт : 169 Кбит/сек
Каналы : 2 канала
Расположение каналов : Front: L R
Частота : 48,0 КГц
Частота кадров : 46,875 кадров/сек (1024 SPF)
Метод сжатия : С потерями
Размер потока : 22,5 Мбайт (20%)
Дата кодирования : UTC 2009-03-04 01:17:45
Дата пометки : UTC 2009-03-04 01:17:46

Общее
Полное имя : C:\torrents\[ANIME4PSP] Gungrave\08. Family.mp4
Формат : MPEG-4
Профиль формата : Base Media
Идентификатор кодека : isom (isom/avc1)
Размер файла : 112 Мбайт
Продолжительность : 24 м. 23 с.
Режим общего битрейта : Переменный
Общий поток : 644 Кбит/сек
Дата кодирования : UTC 2009-03-04 01:49:30
Дата пометки : UTC 2009-03-04 01:49:30

Видео
Идентификатор : 1
Формат : AVC
Формат/Информация : Advanced Video Codec
Профиль формата : [email protected]
Настройки формата : CABAC / 2 Ref Frames
Параметр CABAC формата : Да
Параметр RefFrames формата : 2 кадра
Идентификатор кодека : avc1
Идентификатор кодека/Информация : Advanced Video Coding
Продолжительность : 24 м. 22 с.
Битрейт : 512 Кбит/сек
Максимальный битрейт : 2728 Кбит/сек
Ширина : 480 пикселей
Высота : 272 пикселя
Соотношение сторон : 16:9
Режим частоты кадров : Постоянный
Частота кадров : 29,970 (30000/1001) кадров/сек
Частота кадров в оригинале : 29,970 (29970/1000) кадров/сек
Цветовое пространство : YUV
Субдискретизация насыщенности : 4:2:0
Битовая глубина : 8 бит
Тип развёртки : Прогрессивная
Бит/(Пиксели*Кадры) : 0.131
Размер потока : 89,3 Мбайт (79%)
Библиотека кодирования : x264 core 58 svn-736
Настройки программы : cabac=1 / ref=2 / deblock=1:-2:-1 / analyse=0x1:0x131 / me=umh / subme=7 / brdo=1 / mixed_ref=1 / me_range=16 / chroma_me=1 / trellis=2 / 8x8dct=0 / cqm=0 / deadzone=21,11 / chroma_qp_offset=0 / threads=2 / nr=0 / decimate=0 / mbaff=0 / bframes=3 / b_pyramid=0 / b_adapt=1 / b_bias=0 / direct=3 / wpredb=1 / bime=1 / keyint=250 / keyint_min=25 / scenecut=40(pre) / rc=2pass / bitrate=512 / ratetol=1.0 / rceq='blurCplx^(1-qComp)' / qcomp=0.60 / qpmin=10 / qpmax=51 / qpstep=4 / cplxblur=20.0 / qblur=0.5 / ip_ratio=1.40 / pb_ratio=1.30
Дата кодирования : UTC 2009-03-04 01:49:30
Дата пометки : UTC 2009-03-04 01:49:31

Аудио
Идентификатор : 2
Формат : AAC
Формат/Информация : Advanced Audio Codec
Профиль формата : LC
Идентификатор кодека : mp4a-40-2
Продолжительность : 24 м. 23 с.
Вид битрейта : Переменный
Битрейт : 129 Кбит/сек
Максимальный битрейт : 178 Кбит/сек
Каналы : 2 канала
Расположение каналов : Front: L R
Частота : 48,0 КГц
Частота кадров : 46,875 кадров/сек (1024 SPF)
Метод сжатия : С потерями
Размер потока : 22,5 Мбайт (20%)
Дата кодирования : UTC 2009-03-04 01:49:31
Дата пометки : UTC 2009-03-04 01:49:31

Общее
Полное имя : C:\torrents\[ANIME4PSP] Gungrave\09. Dispute.mp4
Формат : MPEG-4
Профиль формата : Base Media
Идентификатор кодека : isom (isom/avc1)
Размер файла : 112 Мбайт
Продолжительность : 24 м. 21 с.
Режим общего битрейта : Переменный
Общий поток : 644 Кбит/сек
Дата кодирования : UTC 2009-03-04 02:20:33
Дата пометки : UTC 2009-03-04 02:20:33

Видео
Идентификатор : 1
Формат : AVC
Формат/Информация : Advanced Video Codec
Профиль формата : [email protected]
Настройки формата : CABAC / 2 Ref Frames
Параметр CABAC формата : Да
Параметр RefFrames формата : 2 кадра
Идентификатор кодека : avc1
Идентификатор кодека/Информация : Advanced Video Coding
Продолжительность : 24 м. 21 с.
Битрейт : 512 Кбит/сек
Максимальный битрейт : 2539 Кбит/сек
Ширина : 480 пикселей
Высота : 272 пикселя
Соотношение сторон : 16:9
Режим частоты кадров : Постоянный
Частота кадров : 29,970 (30000/1001) кадров/сек
Частота кадров в оригинале : 29,970 (29970/1000) кадров/сек
Цветовое пространство : YUV
Субдискретизация насыщенности : 4:2:0
Битовая глубина : 8 бит
Тип развёртки : Прогрессивная
Бит/(Пиксели*Кадры) : 0.131
Размер потока : 89,2 Мбайт (79%)
Библиотека кодирования : x264 core 58 svn-736
Настройки программы : cabac=1 / ref=2 / deblock=1:-2:-1 / analyse=0x1:0x131 / me=umh / subme=7 / brdo=1 / mixed_ref=1 / me_range=16 / chroma_me=1 / trellis=2 / 8x8dct=0 / cqm=0 / deadzone=21,11 / chroma_qp_offset=0 / threads=2 / nr=0 / decimate=0 / mbaff=0 / bframes=3 / b_pyramid=0 / b_adapt=1 / b_bias=0 / direct=3 / wpredb=1 / bime=1 / keyint=250 / keyint_min=25 / scenecut=40(pre) / rc=2pass / bitrate=512 / ratetol=1.0 / rceq='blurCplx^(1-qComp)' / qcomp=0.60 / qpmin=10 / qpmax=51 / qpstep=4 / cplxblur=20.0 / qblur=0.5 / ip_ratio=1.40 / pb_ratio=1.30
Дата кодирования : UTC 2009-03-04 02:20:33
Дата пометки : UTC 2009-03-04 02:20:35

Аудио
Идентификатор : 2
Формат : AAC
Формат/Информация : Advanced Audio Codec
Профиль формата : LC
Идентификатор кодека : mp4a-40-2
Продолжительность : 24 м. 21 с.
Вид битрейта : Переменный
Битрейт : 129 Кбит/сек
Максимальный битрейт : 173 Кбит/сек
Каналы : 2 канала
Расположение каналов : Front: L R
Частота : 48,0 КГц
Частота кадров : 46,875 кадров/сек (1024 SPF)
Метод сжатия : С потерями
Размер потока : 22,4 Мбайт (20%)
Дата кодирования : UTC 2009-03-04 02:20:35
Дата пометки : UTC 2009-03-04 02:20:35

Общее
Полное имя : C:\torrents\[ANIME4PSP] Gungrave\10. Conflict.mp4
Формат : MPEG-4
Профиль формата : Base Media
Идентификатор кодека : isom (isom/avc1)
Размер файла : 112 Мбайт
Продолжительность : 24 м. 23 с.
Режим общего битрейта : Переменный
Общий поток : 644 Кбит/сек
Дата кодирования : UTC 2009-03-04 02:51:27
Дата пометки : UTC 2009-03-04 02:51:27

Видео
Идентификатор : 1
Формат : AVC
Формат/Информация : Advanced Video Codec
Профиль формата : [email protected]
Настройки формата : CABAC / 2 Ref Frames
Параметр CABAC формата : Да
Параметр RefFrames формата : 2 кадра
Идентификатор кодека : avc1
Идентификатор кодека/Информация : Advanced Video Coding
Продолжительность : 24 м. 23 с.
Битрейт : 512 Кбит/сек
Максимальный битрейт : 2289 Кбит/сек
Ширина : 480 пикселей
Высота : 272 пикселя
Соотношение сторон : 16:9
Режим частоты кадров : Постоянный
Частота кадров : 29,970 (30000/1001) кадров/сек
Частота кадров в оригинале : 29,970 (29970/1000) кадров/сек
Цветовое пространство : YUV
Субдискретизация насыщенности : 4:2:0
Битовая глубина : 8 бит
Тип развёртки : Прогрессивная
Бит/(Пиксели*Кадры) : 0.131
Размер потока : 89,3 Мбайт (79%)
Библиотека кодирования : x264 core 58 svn-736
Настройки программы : cabac=1 / ref=2 / deblock=1:-2:-1 / analyse=0x1:0x131 / me=umh / subme=7 / brdo=1 / mixed_ref=1 / me_range=16 / chroma_me=1 / trellis=2 / 8x8dct=0 / cqm=0 / deadzone=21,11 / chroma_qp_offset=0 / threads=2 / nr=0 / decimate=0 / mbaff=0 / bframes=3 / b_pyramid=0 / b_adapt=1 / b_bias=0 / direct=3 / wpredb=1 / bime=1 / keyint=250 / keyint_min=25 / scenecut=40(pre) / rc=2pass / bitrate=512 / ratetol=1.0 / rceq='blurCplx^(1-qComp)' / qcomp=0.60 / qpmin=10 / qpmax=51 / qpstep=4 / cplxblur=20.0 / qblur=0.5 / ip_ratio=1.40 / pb_ratio=1.30
Дата кодирования : UTC 2009-03-04 02:51:27
Дата пометки : UTC 2009-03-04 02:51:29

Аудио
Идентификатор : 2
Формат : AAC
Формат/Информация : Advanced Audio Codec
Профиль формата : LC
Идентификатор кодека : mp4a-40-2
Продолжительность : 24 м. 23 с.
Вид битрейта : Переменный
Битрейт : 129 Кбит/сек
Максимальный битрейт : 177 Кбит/сек
Каналы : 2 канала
Расположение каналов : Front: L R
Частота : 48,0 КГц
Частота кадров : 46,875 кадров/сек (1024 SPF)
Метод сжатия : С потерями
Размер потока : 22,5 Мбайт (20%)
Дата кодирования : UTC 2009-03-04 02:51:28
Дата пометки : UTC 2009-03-04 02:51:29

Общее
Полное имя : C:\torrents\[ANIME4PSP] Gungrave\11. Heat.mp4
Формат : MPEG-4
Профиль формата : Base Media
Идентификатор кодека : isom (isom/avc1)
Размер файла : 112 Мбайт
Продолжительность : 24 м. 22 с.
Режим общего битрейта : Переменный
Общий поток : 644 Кбит/сек
Дата кодирования : UTC 2009-03-04 03:22:55
Дата пометки : UTC 2009-03-04 03:22:55

Видео
Идентификатор : 1
Формат : AVC
Формат/Информация : Advanced Video Codec
Профиль формата : [email protected]
Настройки формата : CABAC / 2 Ref Frames
Параметр CABAC формата : Да
Параметр RefFrames формата : 2 кадра
Идентификатор кодека : avc1
Идентификатор кодека/Информация : Advanced Video Coding
Продолжительность : 24 м. 22 с.
Битрейт : 512 Кбит/сек
Максимальный битрейт : 2557 Кбит/сек
Ширина : 480 пикселей
Высота : 272 пикселя
Соотношение сторон : 16:9
Режим частоты кадров : Постоянный
Частота кадров : 29,970 (30000/1001) кадров/сек
Частота кадров в оригинале : 29,970 (29970/1000) кадров/сек
Цветовое пространство : YUV
Субдискретизация насыщенности : 4:2:0
Битовая глубина : 8 бит
Тип развёртки : Прогрессивная
Бит/(Пиксели*Кадры) : 0.131
Размер потока : 89,2 Мбайт (79%)
Библиотека кодирования : x264 core 58 svn-736
Настройки программы : cabac=1 / ref=2 / deblock=1:-2:-1 / analyse=0x1:0x131 / me=umh / subme=7 / brdo=1 / mixed_ref=1 / me_range=16 / chroma_me=1 / trellis=2 / 8x8dct=0 / cqm=0 / deadzone=21,11 / chroma_qp_offset=0 / threads=2 / nr=0 / decimate=0 / mbaff=0 / bframes=3 / b_pyramid=0 / b_adapt=1 / b_bias=0 / direct=3 / wpredb=1 / bime=1 / keyint=250 / keyint_min=25 / scenecut=40(pre) / rc=2pass / bitrate=512 / ratetol=1.0 / rceq='blurCplx^(1-qComp)' / qcomp=0.60 / qpmin=10 / qpmax=51 / qpstep=4 / cplxblur=20.0 / qblur=0.5 / ip_ratio=1.40 / pb_ratio=1.30
Дата кодирования : UTC 2009-03-04 03:22:55
Дата пометки : UTC 2009-03-04 03:22:56

Аудио
Идентификатор : 2
Формат : AAC
Формат/Информация : Advanced Audio Codec
Профиль формата : LC
Идентификатор кодека : mp4a-40-2
Продолжительность : 24 м. 22 с.
Вид битрейта : Переменный
Битрейт : 129 Кбит/сек
Максимальный битрейт : 181 Кбит/сек
Каналы : 2 канала
Расположение каналов : Front: L R
Частота : 48,0 КГц
Частота кадров : 46,875 кадров/сек (1024 SPF)
Метод сжатия : С потерями
Размер потока : 22,5 Мбайт (20%)
Дата кодирования : UTC 2009-03-04 03:22:56
Дата пометки : UTC 2009-03-04 03:22:56


Трекер:  [ 03-Июн-2018 07:06 ]

  

Скачать .torrent

Размер .torrent файла 17 KB


Размер: 2.85 GB
Хэш (hash) релиза: 18e5c204869f4b58611eb4e92dd7ec00be183931
Подписка на обновления:

Торренты, похожие на Гангрейв Gungrave скачать торрент

Форум Название Автор Размер S L Добавлен
PSP | Аниме ·· Гангрейв / Gungrave (Цуру Тосиюки)[2003 г., приключения, драма, фантастика, мистика, DVDRip][субтитры] Chonk 30613362172.85 GB 0 0 1294766166

20:16

11-Янв-11

Еще никто не оставлял запись к записи скачать торрент Гангрейв Gungrave . Будь первым!

!Обратная связь