The Taoism Grandmaster | IObit Uninstaller Pro 7 4 0 8 Portable | Play Movie

Скачать через торрент [ANIME4PSP] Воздушные Пираты Erementar Gerad Фильм бесплатно в хорошем качестве torrent

Скачивайте на UnionPeer.org фильмы через торрент без регистрации. Новинки кино в хорошем качестве через торрент. На UnionPeer.org можно скачать через торрент фильмы 2014 и 2015 годов. Самые новые фильмы.

Скачать торрент [ANIME4PSP] Воздушные Пираты Erementar Gerad бесплатно через .torrent фильм мультфильм сериал

Статистика раздачи
Размер:  2.44 GB   |    Зарегистрирован:  2 месяца 18 дней   |    .torrent скачан:  30 раз   |   
Раздают:  1  
   
загрузка...
 
Автор Сообщение

Galfimbul

avatar Galfimbul


Воздушные Пираты
Erementar Gerad / エレメンタルジェレイド
Год выпуска: 2005
Страна: Япония
Жанр: приключения, комедия, романтика, фэнтези
Продолжительность: 26 серий x 24 мин
Перевод: Русский хардсаб
Режиссер: Уэда Сигэру / Ueda Shigeru / 上田繁
Автор оригинала: Адзума Маюми / Azuma Mayumi / 東まゆみ
Студия:

Описание: После самого обычного рейда, молодой "воздушный" пират-новичок, по имени Куд, нашел в трюме необычный груз, саркофаг. Внутри него оказалась девушка Рен. Она представляет собой "Эдил Рейд": расу, которую очень ценят люди, из-за потрясающей силы, которую она может дать, вступив в "реакцию" с людьми. Куд быстро обнаруживает, что она много ценнее, чем предполагалось сначала...
Вскоре на пиратский корабль прилетают три члена команды Арк Эйл, которые пытаются выменять Рен. Когда Куд отказывается, на корабль, внезапно, нападают загадочные силы. Капитан решает спрятать Рен, отослав её вместе с Кудом подальше от корабля. Ясное дело, что за ними отправляется и команда Арк Эйл, и многие другие, ищущие Рен…


Качество: DVDRip
Формат: MP4
Видео кодек: H.264
Аудио кодек: AAC
Видео: MPEG4 Video (H264, 2 pass, Extreme) 368x272 29.97fps, 448 kbps
Аудио: AAC 48000Hz stereo, 128 kbps
01. Song of the Sky and the Wind
02. Same Bond of Fate
03. Seven Brilliant Treasure Trees of Betrayal
04. Nucleus Stone of Light and Darkness
05. The Teardrop from that Day
06. Gazing at the Pleasure
07. The Will to Obligarth
08. The Terrible Edilred Hunter
09. The Secret of the Port Town, Razfe-Ankur
10. Gambling Place of Love and Desire, Milliard-Tray
11. Class Fighter of Revenge
12. Dash into Freedom
13. Arcaile
14. Edil Raid Hunter, Second Meeting
15. El-Blanker
16. Remembering the Wild Bride
17. Troubling Unexpected Meeting
18. The False React
19. The Rock`s Feelings
20. Firo
21. The Revealed Truth
22. The Buried Legend
23. Promise
24. Edil Garden
25. Chaos Choir
26. Song of the Skies and the Future
Общее
Полное имя : C:\torrents\[ANIME4PSP] Erementar Gerad\17. Troubling Unexpected Meeting.mp4
Формат : MPEG-4
Профиль формата : Base Media
Идентификатор кодека : isom (isom/avc1)
Размер файла : 95,9 Мбайт
Продолжительность : 23 м. 5 с.
Режим общего битрейта : Переменный
Общий поток : 580 Кбит/сек
Дата кодирования : UTC 2008-12-17 16:04:07
Дата пометки : UTC 2008-12-17 16:04:07

Видео
Идентификатор : 1
Формат : AVC
Формат/Информация : Advanced Video Codec
Профиль формата : [email protected]
Настройки формата : CABAC / 2 Ref Frames
Параметр CABAC формата : Да
Параметр RefFrames формата : 2 кадра
Идентификатор кодека : avc1
Идентификатор кодека/Информация : Advanced Video Coding
Продолжительность : 23 м. 5 с.
Битрейт : 448 Кбит/сек
Максимальный битрейт : 1789 Кбит/сек
Ширина : 368 пикселей
Высота : 272 пикселя
Соотношение сторон : 4:3
Режим частоты кадров : Постоянный
Частота кадров : 29,970 (30000/1001) кадров/сек
Частота кадров в оригинале : 29,970 (29970/1000) кадров/сек
Цветовое пространство : YUV
Субдискретизация насыщенности : 4:2:0
Битовая глубина : 8 бит
Тип развёртки : Прогрессивная
Бит/(Пиксели*Кадры) : 0.149
Размер потока : 74,0 Мбайт (77%)
Библиотека кодирования : x264 core 58 svn-736
Настройки программы : cabac=1 / ref=2 / deblock=1:-2:-1 / analyse=0x1:0x131 / me=umh / subme=7 / brdo=1 / mixed_ref=1 / me_range=16 / chroma_me=1 / trellis=2 / 8x8dct=0 / cqm=0 / deadzone=21,11 / chroma_qp_offset=0 / threads=2 / nr=0 / decimate=0 / mbaff=0 / bframes=3 / b_pyramid=0 / b_adapt=1 / b_bias=0 / direct=3 / wpredb=1 / bime=1 / keyint=250 / keyint_min=25 / scenecut=40(pre) / rc=2pass / bitrate=448 / ratetol=1.0 / rceq='blurCplx^(1-qComp)' / qcomp=0.60 / qpmin=10 / qpmax=51 / qpstep=4 / cplxblur=20.0 / qblur=0.5 / ip_ratio=1.40 / pb_ratio=1.30
Дата кодирования : UTC 2008-12-17 16:04:07
Дата пометки : UTC 2008-12-17 16:04:10

Аудио
Идентификатор : 2
Формат : AAC
Формат/Информация : Advanced Audio Codec
Профиль формата : LC
Идентификатор кодека : mp4a-40-2
Продолжительность : 23 м. 5 с.
Вид битрейта : Переменный
Битрейт : 129 Кбит/сек
Максимальный битрейт : 182 Кбит/сек
Каналы : 2 канала
Расположение каналов : Front: L R
Частота : 48,0 КГц
Частота кадров : 46,875 кадров/сек (1024 SPF)
Метод сжатия : С потерями
Размер потока : 21,3 Мбайт (22%)
Дата кодирования : UTC 2008-12-17 16:04:09
Дата пометки : UTC 2008-12-17 16:04:10

Общее
Полное имя : C:\torrents\[ANIME4PSP] Erementar Gerad\18. The False React.mp4
Формат : MPEG-4
Профиль формата : Base Media
Идентификатор кодека : isom (isom/avc1)
Размер файла : 96,0 Мбайт
Продолжительность : 23 м. 7 с.
Режим общего битрейта : Переменный
Общий поток : 580 Кбит/сек
Дата кодирования : UTC 2008-12-17 16:38:29
Дата пометки : UTC 2008-12-17 16:38:29

Видео
Идентификатор : 1
Формат : AVC
Формат/Информация : Advanced Video Codec
Профиль формата : [email protected]
Настройки формата : CABAC / 2 Ref Frames
Параметр CABAC формата : Да
Параметр RefFrames формата : 2 кадра
Идентификатор кодека : avc1
Идентификатор кодека/Информация : Advanced Video Coding
Продолжительность : 23 м. 7 с.
Битрейт : 448 Кбит/сек
Максимальный битрейт : 1651 Кбит/сек
Ширина : 368 пикселей
Высота : 272 пикселя
Соотношение сторон : 4:3
Режим частоты кадров : Постоянный
Частота кадров : 29,970 (30000/1001) кадров/сек
Частота кадров в оригинале : 29,970 (29970/1000) кадров/сек
Цветовое пространство : YUV
Субдискретизация насыщенности : 4:2:0
Битовая глубина : 8 бит
Тип развёртки : Прогрессивная
Бит/(Пиксели*Кадры) : 0.149
Размер потока : 74,1 Мбайт (77%)
Библиотека кодирования : x264 core 58 svn-736
Настройки программы : cabac=1 / ref=2 / deblock=1:-2:-1 / analyse=0x1:0x131 / me=umh / subme=7 / brdo=1 / mixed_ref=1 / me_range=16 / chroma_me=1 / trellis=2 / 8x8dct=0 / cqm=0 / deadzone=21,11 / chroma_qp_offset=0 / threads=2 / nr=0 / decimate=0 / mbaff=0 / bframes=3 / b_pyramid=0 / b_adapt=1 / b_bias=0 / direct=3 / wpredb=1 / bime=1 / keyint=250 / keyint_min=25 / scenecut=40(pre) / rc=2pass / bitrate=448 / ratetol=1.0 / rceq='blurCplx^(1-qComp)' / qcomp=0.60 / qpmin=10 / qpmax=51 / qpstep=4 / cplxblur=20.0 / qblur=0.5 / ip_ratio=1.40 / pb_ratio=1.30
Дата кодирования : UTC 2008-12-17 16:38:29
Дата пометки : UTC 2008-12-17 16:38:31

Аудио
Идентификатор : 2
Формат : AAC
Формат/Информация : Advanced Audio Codec
Профиль формата : LC
Идентификатор кодека : mp4a-40-2
Продолжительность : 23 м. 7 с.
Вид битрейта : Переменный
Битрейт : 129 Кбит/сек
Максимальный битрейт : 191 Кбит/сек
Каналы : 2 канала
Расположение каналов : Front: L R
Частота : 48,0 КГц
Частота кадров : 46,875 кадров/сек (1024 SPF)
Метод сжатия : С потерями
Размер потока : 21,3 Мбайт (22%)
Дата кодирования : UTC 2008-12-17 16:38:31
Дата пометки : UTC 2008-12-17 16:38:31

Общее
Полное имя : C:\torrents\[ANIME4PSP] Erementar Gerad\19. The Rock`s Feelings.mp4
Формат : MPEG-4
Профиль формата : Base Media
Идентификатор кодека : isom (isom/avc1)
Размер файла : 96,0 Мбайт
Продолжительность : 23 м. 6 с.
Режим общего битрейта : Переменный
Общий поток : 581 Кбит/сек
Дата кодирования : UTC 2008-12-18 16:26:17
Дата пометки : UTC 2008-12-18 16:26:17

Видео
Идентификатор : 1
Формат : AVC
Формат/Информация : Advanced Video Codec
Профиль формата : [email protected]
Настройки формата : CABAC / 2 Ref Frames
Параметр CABAC формата : Да
Параметр RefFrames формата : 2 кадра
Идентификатор кодека : avc1
Идентификатор кодека/Информация : Advanced Video Coding
Продолжительность : 23 м. 6 с.
Битрейт : 448 Кбит/сек
Максимальный битрейт : 2114 Кбит/сек
Ширина : 368 пикселей
Высота : 272 пикселя
Соотношение сторон : 4:3
Режим частоты кадров : Постоянный
Частота кадров : 29,970 (30000/1001) кадров/сек
Частота кадров в оригинале : 29,970 (29970/1000) кадров/сек
Цветовое пространство : YUV
Субдискретизация насыщенности : 4:2:0
Битовая глубина : 8 бит
Тип развёртки : Прогрессивная
Бит/(Пиксели*Кадры) : 0.149
Размер потока : 74,1 Мбайт (77%)
Библиотека кодирования : x264 core 58 svn-736
Настройки программы : cabac=1 / ref=2 / deblock=1:-2:-1 / analyse=0x1:0x131 / me=umh / subme=7 / brdo=1 / mixed_ref=1 / me_range=16 / chroma_me=1 / trellis=2 / 8x8dct=0 / cqm=0 / deadzone=21,11 / chroma_qp_offset=0 / threads=2 / nr=0 / decimate=0 / mbaff=0 / bframes=3 / b_pyramid=0 / b_adapt=1 / b_bias=0 / direct=3 / wpredb=1 / bime=1 / keyint=250 / keyint_min=25 / scenecut=40(pre) / rc=2pass / bitrate=448 / ratetol=1.0 / rceq='blurCplx^(1-qComp)' / qcomp=0.60 / qpmin=10 / qpmax=51 / qpstep=4 / cplxblur=20.0 / qblur=0.5 / ip_ratio=1.40 / pb_ratio=1.30
Дата кодирования : UTC 2008-12-18 16:26:17
Дата пометки : UTC 2008-12-18 16:27:26

Аудио
Идентификатор : 2
Формат : AAC
Формат/Информация : Advanced Audio Codec
Профиль формата : LC
Идентификатор кодека : mp4a-40-2
Продолжительность : 23 м. 6 с.
Вид битрейта : Переменный
Битрейт : 129 Кбит/сек
Максимальный битрейт : 190 Кбит/сек
Каналы : 2 канала
Расположение каналов : Front: L R
Частота : 48,0 КГц
Частота кадров : 46,875 кадров/сек (1024 SPF)
Метод сжатия : С потерями
Размер потока : 21,3 Мбайт (22%)
Дата кодирования : UTC 2008-12-18 16:27:25
Дата пометки : UTC 2008-12-18 16:27:26

Общее
Полное имя : C:\torrents\[ANIME4PSP] Erementar Gerad\20. Firo.mp4
Формат : MPEG-4
Профиль формата : Base Media
Идентификатор кодека : isom (isom/avc1)
Размер файла : 96,0 Мбайт
Продолжительность : 23 м. 7 с.
Режим общего битрейта : Переменный
Общий поток : 580 Кбит/сек
Дата кодирования : UTC 2008-12-18 09:35:16
Дата пометки : UTC 2008-12-18 09:35:16

Видео
Идентификатор : 1
Формат : AVC
Формат/Информация : Advanced Video Codec
Профиль формата : [email protected]
Настройки формата : CABAC / 2 Ref Frames
Параметр CABAC формата : Да
Параметр RefFrames формата : 2 кадра
Идентификатор кодека : avc1
Идентификатор кодека/Информация : Advanced Video Coding
Продолжительность : 23 м. 7 с.
Битрейт : 448 Кбит/сек
Максимальный битрейт : 2013 Кбит/сек
Ширина : 368 пикселей
Высота : 272 пикселя
Соотношение сторон : 4:3
Режим частоты кадров : Постоянный
Частота кадров : 29,970 (30000/1001) кадров/сек
Частота кадров в оригинале : 29,970 (29970/1000) кадров/сек
Цветовое пространство : YUV
Субдискретизация насыщенности : 4:2:0
Битовая глубина : 8 бит
Тип развёртки : Прогрессивная
Бит/(Пиксели*Кадры) : 0.149
Размер потока : 74,1 Мбайт (77%)
Библиотека кодирования : x264 core 58 svn-736
Настройки программы : cabac=1 / ref=2 / deblock=1:-2:-1 / analyse=0x1:0x131 / me=umh / subme=7 / brdo=1 / mixed_ref=1 / me_range=16 / chroma_me=1 / trellis=2 / 8x8dct=0 / cqm=0 / deadzone=21,11 / chroma_qp_offset=0 / threads=2 / nr=0 / decimate=0 / mbaff=0 / bframes=3 / b_pyramid=0 / b_adapt=1 / b_bias=0 / direct=3 / wpredb=1 / bime=1 / keyint=250 / keyint_min=25 / scenecut=40(pre) / rc=2pass / bitrate=448 / ratetol=1.0 / rceq='blurCplx^(1-qComp)' / qcomp=0.60 / qpmin=10 / qpmax=51 / qpstep=4 / cplxblur=20.0 / qblur=0.5 / ip_ratio=1.40 / pb_ratio=1.30
Дата кодирования : UTC 2008-12-18 09:35:16
Дата пометки : UTC 2008-12-18 09:35:21

Аудио
Идентификатор : 2
Формат : AAC
Формат/Информация : Advanced Audio Codec
Профиль формата : LC
Идентификатор кодека : mp4a-40-2
Продолжительность : 23 м. 7 с.
Вид битрейта : Переменный
Битрейт : 129 Кбит/сек
Максимальный битрейт : 186 Кбит/сек
Каналы : 2 канала
Расположение каналов : Front: L R
Частота : 48,0 КГц
Частота кадров : 46,875 кадров/сек (1024 SPF)
Метод сжатия : С потерями
Размер потока : 21,3 Мбайт (22%)
Дата кодирования : UTC 2008-12-18 09:35:20
Дата пометки : UTC 2008-12-18 09:35:21

Общее
Полное имя : C:\torrents\[ANIME4PSP] Erementar Gerad\21. The Revealed Truth.mp4
Формат : MPEG-4
Профиль формата : Base Media
Идентификатор кодека : isom (isom/avc1)
Размер файла : 95,9 Мбайт
Продолжительность : 23 м. 6 с.
Режим общего битрейта : Переменный
Общий поток : 580 Кбит/сек
Дата кодирования : UTC 2008-12-18 10:11:21
Дата пометки : UTC 2008-12-18 10:11:21

Видео
Идентификатор : 1
Формат : AVC
Формат/Информация : Advanced Video Codec
Профиль формата : [email protected]
Настройки формата : CABAC / 2 Ref Frames
Параметр CABAC формата : Да
Параметр RefFrames формата : 2 кадра
Идентификатор кодека : avc1
Идентификатор кодека/Информация : Advanced Video Coding
Продолжительность : 23 м. 6 с.
Битрейт : 448 Кбит/сек
Максимальный битрейт : 1926 Кбит/сек
Ширина : 368 пикселей
Высота : 272 пикселя
Соотношение сторон : 4:3
Режим частоты кадров : Постоянный
Частота кадров : 29,970 (30000/1001) кадров/сек
Частота кадров в оригинале : 29,970 (29970/1000) кадров/сек
Цветовое пространство : YUV
Субдискретизация насыщенности : 4:2:0
Битовая глубина : 8 бит
Тип развёртки : Прогрессивная
Бит/(Пиксели*Кадры) : 0.149
Размер потока : 74,0 Мбайт (77%)
Библиотека кодирования : x264 core 58 svn-736
Настройки программы : cabac=1 / ref=2 / deblock=1:-2:-1 / analyse=0x1:0x131 / me=umh / subme=7 / brdo=1 / mixed_ref=1 / me_range=16 / chroma_me=1 / trellis=2 / 8x8dct=0 / cqm=0 / deadzone=21,11 / chroma_qp_offset=0 / threads=2 / nr=0 / decimate=0 / mbaff=0 / bframes=3 / b_pyramid=0 / b_adapt=1 / b_bias=0 / direct=3 / wpredb=1 / bime=1 / keyint=250 / keyint_min=25 / scenecut=40(pre) / rc=2pass / bitrate=448 / ratetol=1.0 / rceq='blurCplx^(1-qComp)' / qcomp=0.60 / qpmin=10 / qpmax=51 / qpstep=4 / cplxblur=20.0 / qblur=0.5 / ip_ratio=1.40 / pb_ratio=1.30
Дата кодирования : UTC 2008-12-18 10:11:21
Дата пометки : UTC 2008-12-18 10:11:24

Аудио
Идентификатор : 2
Формат : AAC
Формат/Информация : Advanced Audio Codec
Профиль формата : LC
Идентификатор кодека : mp4a-40-2
Продолжительность : 23 м. 6 с.
Вид битрейта : Переменный
Битрейт : 129 Кбит/сек
Максимальный битрейт : 179 Кбит/сек
Каналы : 2 канала
Расположение каналов : Front: L R
Частота : 48,0 КГц
Частота кадров : 46,875 кадров/сек (1024 SPF)
Метод сжатия : С потерями
Размер потока : 21,3 Мбайт (22%)
Дата кодирования : UTC 2008-12-18 10:11:24
Дата пометки : UTC 2008-12-18 10:11:24

Общее
Полное имя : C:\torrents\[ANIME4PSP] Erementar Gerad\22. The Buried Legend.mp4
Формат : MPEG-4
Профиль формата : Base Media
Идентификатор кодека : isom (isom/avc1)
Размер файла : 96,0 Мбайт
Продолжительность : 23 м. 7 с.
Режим общего битрейта : Переменный
Общий поток : 580 Кбит/сек
Дата кодирования : UTC 2008-12-18 10:45:40
Дата пометки : UTC 2008-12-18 10:45:40

Видео
Идентификатор : 1
Формат : AVC
Формат/Информация : Advanced Video Codec
Профиль формата : [email protected]
Настройки формата : CABAC / 2 Ref Frames
Параметр CABAC формата : Да
Параметр RefFrames формата : 2 кадра
Идентификатор кодека : avc1
Идентификатор кодека/Информация : Advanced Video Coding
Продолжительность : 23 м. 7 с.
Битрейт : 448 Кбит/сек
Максимальный битрейт : 2075 Кбит/сек
Ширина : 368 пикселей
Высота : 272 пикселя
Соотношение сторон : 4:3
Режим частоты кадров : Постоянный
Частота кадров : 29,970 (30000/1001) кадров/сек
Частота кадров в оригинале : 29,970 (29970/1000) кадров/сек
Цветовое пространство : YUV
Субдискретизация насыщенности : 4:2:0
Битовая глубина : 8 бит
Тип развёртки : Прогрессивная
Бит/(Пиксели*Кадры) : 0.149
Размер потока : 74,1 Мбайт (77%)
Библиотека кодирования : x264 core 58 svn-736
Настройки программы : cabac=1 / ref=2 / deblock=1:-2:-1 / analyse=0x1:0x131 / me=umh / subme=7 / brdo=1 / mixed_ref=1 / me_range=16 / chroma_me=1 / trellis=2 / 8x8dct=0 / cqm=0 / deadzone=21,11 / chroma_qp_offset=0 / threads=2 / nr=0 / decimate=0 / mbaff=0 / bframes=3 / b_pyramid=0 / b_adapt=1 / b_bias=0 / direct=3 / wpredb=1 / bime=1 / keyint=250 / keyint_min=25 / scenecut=40(pre) / rc=2pass / bitrate=448 / ratetol=1.0 / rceq='blurCplx^(1-qComp)' / qcomp=0.60 / qpmin=10 / qpmax=51 / qpstep=4 / cplxblur=20.0 / qblur=0.5 / ip_ratio=1.40 / pb_ratio=1.30
Дата кодирования : UTC 2008-12-18 10:45:40
Дата пометки : UTC 2008-12-18 10:45:43

Аудио
Идентификатор : 2
Формат : AAC
Формат/Информация : Advanced Audio Codec
Профиль формата : LC
Идентификатор кодека : mp4a-40-2
Продолжительность : 23 м. 7 с.
Вид битрейта : Переменный
Битрейт : 129 Кбит/сек
Максимальный битрейт : 202 Кбит/сек
Каналы : 2 канала
Расположение каналов : Front: L R
Частота : 48,0 КГц
Частота кадров : 46,875 кадров/сек (1024 SPF)
Метод сжатия : С потерями
Размер потока : 21,3 Мбайт (22%)
Дата кодирования : UTC 2008-12-18 10:45:42
Дата пометки : UTC 2008-12-18 10:45:43

Общее
Полное имя : C:\torrents\[ANIME4PSP] Erementar Gerad\23. Promise.mp4
Формат : MPEG-4
Профиль формата : Base Media
Идентификатор кодека : isom (isom/avc1)
Размер файла : 96,0 Мбайт
Продолжительность : 23 м. 7 с.
Режим общего битрейта : Переменный
Общий поток : 580 Кбит/сек
Дата кодирования : UTC 2008-12-18 11:20:11
Дата пометки : UTC 2008-12-18 11:20:11

Видео
Идентификатор : 1
Формат : AVC
Формат/Информация : Advanced Video Codec
Профиль формата : [email protected]
Настройки формата : CABAC / 2 Ref Frames
Параметр CABAC формата : Да
Параметр RefFrames формата : 2 кадра
Идентификатор кодека : avc1
Идентификатор кодека/Информация : Advanced Video Coding
Продолжительность : 23 м. 7 с.
Битрейт : 448 Кбит/сек
Максимальный битрейт : 1659 Кбит/сек
Ширина : 368 пикселей
Высота : 272 пикселя
Соотношение сторон : 4:3
Режим частоты кадров : Постоянный
Частота кадров : 29,970 (30000/1001) кадров/сек
Частота кадров в оригинале : 29,970 (29970/1000) кадров/сек
Цветовое пространство : YUV
Субдискретизация насыщенности : 4:2:0
Битовая глубина : 8 бит
Тип развёртки : Прогрессивная
Бит/(Пиксели*Кадры) : 0.149
Размер потока : 74,1 Мбайт (77%)
Библиотека кодирования : x264 core 58 svn-736
Настройки программы : cabac=1 / ref=2 / deblock=1:-2:-1 / analyse=0x1:0x131 / me=umh / subme=7 / brdo=1 / mixed_ref=1 / me_range=16 / chroma_me=1 / trellis=2 / 8x8dct=0 / cqm=0 / deadzone=21,11 / chroma_qp_offset=0 / threads=2 / nr=0 / decimate=0 / mbaff=0 / bframes=3 / b_pyramid=0 / b_adapt=1 / b_bias=0 / direct=3 / wpredb=1 / bime=1 / keyint=250 / keyint_min=25 / scenecut=40(pre) / rc=2pass / bitrate=448 / ratetol=1.0 / rceq='blurCplx^(1-qComp)' / qcomp=0.60 / qpmin=10 / qpmax=51 / qpstep=4 / cplxblur=20.0 / qblur=0.5 / ip_ratio=1.40 / pb_ratio=1.30
Дата кодирования : UTC 2008-12-18 11:20:11
Дата пометки : UTC 2008-12-18 11:20:14

Аудио
Идентификатор : 2
Формат : AAC
Формат/Информация : Advanced Audio Codec
Профиль формата : LC
Идентификатор кодека : mp4a-40-2
Продолжительность : 23 м. 7 с.
Вид битрейта : Переменный
Битрейт : 129 Кбит/сек
Максимальный битрейт : 207 Кбит/сек
Каналы : 2 канала
Расположение каналов : Front: L R
Частота : 48,0 КГц
Частота кадров : 46,875 кадров/сек (1024 SPF)
Метод сжатия : С потерями
Размер потока : 21,3 Мбайт (22%)
Дата кодирования : UTC 2008-12-18 11:20:13
Дата пометки : UTC 2008-12-18 11:20:14

Общее
Полное имя : C:\torrents\[ANIME4PSP] Erementar Gerad\24. Edil Garden.mp4
Формат : MPEG-4
Профиль формата : Base Media
Идентификатор кодека : isom (isom/avc1)
Размер файла : 95,9 Мбайт
Продолжительность : 23 м. 7 с.
Режим общего битрейта : Переменный
Общий поток : 580 Кбит/сек
Дата кодирования : UTC 2008-12-18 11:53:54
Дата пометки : UTC 2008-12-18 11:53:54

Видео
Идентификатор : 1
Формат : AVC
Формат/Информация : Advanced Video Codec
Профиль формата : [email protected]
Настройки формата : CABAC / 2 Ref Frames
Параметр CABAC формата : Да
Параметр RefFrames формата : 2 кадра
Идентификатор кодека : avc1
Идентификатор кодека/Информация : Advanced Video Coding
Продолжительность : 23 м. 7 с.
Битрейт : 448 Кбит/сек
Максимальный битрейт : 1833 Кбит/сек
Ширина : 368 пикселей
Высота : 272 пикселя
Соотношение сторон : 4:3
Режим частоты кадров : Постоянный
Частота кадров : 29,970 (30000/1001) кадров/сек
Частота кадров в оригинале : 29,970 (29970/1000) кадров/сек
Цветовое пространство : YUV
Субдискретизация насыщенности : 4:2:0
Битовая глубина : 8 бит
Тип развёртки : Прогрессивная
Бит/(Пиксели*Кадры) : 0.149
Размер потока : 74,1 Мбайт (77%)
Библиотека кодирования : x264 core 58 svn-736
Настройки программы : cabac=1 / ref=2 / deblock=1:-2:-1 / analyse=0x1:0x131 / me=umh / subme=7 / brdo=1 / mixed_ref=1 / me_range=16 / chroma_me=1 / trellis=2 / 8x8dct=0 / cqm=0 / deadzone=21,11 / chroma_qp_offset=0 / threads=2 / nr=0 / decimate=0 / mbaff=0 / bframes=3 / b_pyramid=0 / b_adapt=1 / b_bias=0 / direct=3 / wpredb=1 / bime=1 / keyint=250 / keyint_min=25 / scenecut=40(pre) / rc=2pass / bitrate=448 / ratetol=1.0 / rceq='blurCplx^(1-qComp)' / qcomp=0.60 / qpmin=10 / qpmax=51 / qpstep=4 / cplxblur=20.0 / qblur=0.5 / ip_ratio=1.40 / pb_ratio=1.30
Дата кодирования : UTC 2008-12-18 11:53:54
Дата пометки : UTC 2008-12-18 11:54:00

Аудио
Идентификатор : 2
Формат : AAC
Формат/Информация : Advanced Audio Codec
Профиль формата : LC
Идентификатор кодека : mp4a-40-2
Продолжительность : 23 м. 7 с.
Вид битрейта : Переменный
Битрейт : 129 Кбит/сек
Максимальный битрейт : 182 Кбит/сек
Каналы : 2 канала
Расположение каналов : Front: L R
Частота : 48,0 КГц
Частота кадров : 46,875 кадров/сек (1024 SPF)
Метод сжатия : С потерями
Размер потока : 21,3 Мбайт (22%)
Дата кодирования : UTC 2008-12-18 11:53:59
Дата пометки : UTC 2008-12-18 11:54:00

Общее
Полное имя : C:\torrents\[ANIME4PSP] Erementar Gerad\25. Chaos Choir.mp4
Формат : MPEG-4
Профиль формата : Base Media
Идентификатор кодека : isom (isom/avc1)
Размер файла : 96,0 Мбайт
Продолжительность : 23 м. 7 с.
Режим общего битрейта : Переменный
Общий поток : 580 Кбит/сек
Дата кодирования : UTC 2008-12-18 12:29:21
Дата пометки : UTC 2008-12-18 12:29:21

Видео
Идентификатор : 1
Формат : AVC
Формат/Информация : Advanced Video Codec
Профиль формата : [email protected]
Настройки формата : CABAC / 2 Ref Frames
Параметр CABAC формата : Да
Параметр RefFrames формата : 2 кадра
Идентификатор кодека : avc1
Идентификатор кодека/Информация : Advanced Video Coding
Продолжительность : 23 м. 7 с.
Битрейт : 448 Кбит/сек
Максимальный битрейт : 1913 Кбит/сек
Ширина : 368 пикселей
Высота : 272 пикселя
Соотношение сторон : 4:3
Режим частоты кадров : Постоянный
Частота кадров : 29,970 (30000/1001) кадров/сек
Частота кадров в оригинале : 29,970 (29970/1000) кадров/сек
Цветовое пространство : YUV
Субдискретизация насыщенности : 4:2:0
Битовая глубина : 8 бит
Тип развёртки : Прогрессивная
Бит/(Пиксели*Кадры) : 0.149
Размер потока : 74,1 Мбайт (77%)
Библиотека кодирования : x264 core 58 svn-736
Настройки программы : cabac=1 / ref=2 / deblock=1:-2:-1 / analyse=0x1:0x131 / me=umh / subme=7 / brdo=1 / mixed_ref=1 / me_range=16 / chroma_me=1 / trellis=2 / 8x8dct=0 / cqm=0 / deadzone=21,11 / chroma_qp_offset=0 / threads=2 / nr=0 / decimate=0 / mbaff=0 / bframes=3 / b_pyramid=0 / b_adapt=1 / b_bias=0 / direct=3 / wpredb=1 / bime=1 / keyint=250 / keyint_min=25 / scenecut=40(pre) / rc=2pass / bitrate=448 / ratetol=1.0 / rceq='blurCplx^(1-qComp)' / qcomp=0.60 / qpmin=10 / qpmax=51 / qpstep=4 / cplxblur=20.0 / qblur=0.5 / ip_ratio=1.40 / pb_ratio=1.30
Дата кодирования : UTC 2008-12-18 12:29:21
Дата пометки : UTC 2008-12-18 12:29:25

Аудио
Идентификатор : 2
Формат : AAC
Формат/Информация : Advanced Audio Codec
Профиль формата : LC
Идентификатор кодека : mp4a-40-2
Продолжительность : 23 м. 7 с.
Вид битрейта : Переменный
Битрейт : 129 Кбит/сек
Максимальный битрейт : 186 Кбит/сек
Каналы : 2 канала
Расположение каналов : Front: L R
Частота : 48,0 КГц
Частота кадров : 46,875 кадров/сек (1024 SPF)
Метод сжатия : С потерями
Размер потока : 21,3 Мбайт (22%)
Дата кодирования : UTC 2008-12-18 12:29:24
Дата пометки : UTC 2008-12-18 12:29:25

Общее
Полное имя : C:\torrents\[ANIME4PSP] Erementar Gerad\26. Song of the Skies and the Future.mp4
Формат : MPEG-4
Профиль формата : Base Media
Идентификатор кодека : isom (isom/avc1)
Размер файла : 95,2 Мбайт
Продолжительность : 22 м. 56 с.
Режим общего битрейта : Переменный
Общий поток : 580 Кбит/сек
Дата кодирования : UTC 2008-12-18 13:03:02
Дата пометки : UTC 2008-12-18 13:03:02

Видео
Идентификатор : 1
Формат : AVC
Формат/Информация : Advanced Video Codec
Профиль формата : [email protected]
Настройки формата : CABAC / 2 Ref Frames
Параметр CABAC формата : Да
Параметр RefFrames формата : 2 кадра
Идентификатор кодека : avc1
Идентификатор кодека/Информация : Advanced Video Coding
Продолжительность : 22 м. 56 с.
Битрейт : 448 Кбит/сек
Максимальный битрейт : 2092 Кбит/сек
Ширина : 368 пикселей
Высота : 272 пикселя
Соотношение сторон : 4:3
Режим частоты кадров : Постоянный
Частота кадров : 29,970 (30000/1001) кадров/сек
Частота кадров в оригинале : 29,970 (29970/1000) кадров/сек
Цветовое пространство : YUV
Субдискретизация насыщенности : 4:2:0
Битовая глубина : 8 бит
Тип развёртки : Прогрессивная
Бит/(Пиксели*Кадры) : 0.149
Размер потока : 73,5 Мбайт (77%)
Библиотека кодирования : x264 core 58 svn-736
Настройки программы : cabac=1 / ref=2 / deblock=1:-2:-1 / analyse=0x1:0x131 / me=umh / subme=7 / brdo=1 / mixed_ref=1 / me_range=16 / chroma_me=1 / trellis=2 / 8x8dct=0 / cqm=0 / deadzone=21,11 / chroma_qp_offset=0 / threads=2 / nr=0 / decimate=0 / mbaff=0 / bframes=3 / b_pyramid=0 / b_adapt=1 / b_bias=0 / direct=3 / wpredb=1 / bime=1 / keyint=250 / keyint_min=25 / scenecut=40(pre) / rc=2pass / bitrate=448 / ratetol=1.0 / rceq='blurCplx^(1-qComp)' / qcomp=0.60 / qpmin=10 / qpmax=51 / qpstep=4 / cplxblur=20.0 / qblur=0.5 / ip_ratio=1.40 / pb_ratio=1.30
Дата кодирования : UTC 2008-12-18 13:03:02
Дата пометки : UTC 2008-12-18 13:03:05

Аудио
Идентификатор : 2
Формат : AAC
Формат/Информация : Advanced Audio Codec
Профиль формата : LC
Идентификатор кодека : mp4a-40-2
Продолжительность : 22 м. 56 с.
Вид битрейта : Переменный
Битрейт : 128 Кбит/сек
Максимальный битрейт : 187 Кбит/сек
Каналы : 2 канала
Расположение каналов : Front: L R
Частота : 48,0 КГц
Частота кадров : 46,875 кадров/сек (1024 SPF)
Метод сжатия : С потерями
Размер потока : 21,0 Мбайт (22%)
Дата кодирования : UTC 2008-12-18 13:03:05
Дата пометки : UTC 2008-12-18 13:03:05

Общее
Полное имя : C:\torrents\[ANIME4PSP] Erementar Gerad\01. Song of the Sky and the Wind.mp4
Формат : MPEG-4
Профиль формата : Base Media
Идентификатор кодека : isom (isom/avc1)
Размер файла : 96,0 Мбайт
Продолжительность : 23 м. 7 с.
Режим общего битрейта : Переменный
Общий поток : 580 Кбит/сек
Дата кодирования : UTC 2008-12-17 09:43:12
Дата пометки : UTC 2008-12-17 09:43:12

Видео
Идентификатор : 1
Формат : AVC
Формат/Информация : Advanced Video Codec
Профиль формата : [email protected]
Настройки формата : CABAC / 2 Ref Frames
Параметр CABAC формата : Да
Параметр RefFrames формата : 2 кадра
Идентификатор кодека : avc1
Идентификатор кодека/Информация : Advanced Video Coding
Продолжительность : 23 м. 7 с.
Битрейт : 448 Кбит/сек
Максимальный битрейт : 1784 Кбит/сек
Ширина : 368 пикселей
Высота : 272 пикселя
Соотношение сторон : 4:3
Режим частоты кадров : Постоянный
Частота кадров : 29,970 (30000/1001) кадров/сек
Частота кадров в оригинале : 29,970 (29970/1000) кадров/сек
Цветовое пространство : YUV
Субдискретизация насыщенности : 4:2:0
Битовая глубина : 8 бит
Тип развёртки : Прогрессивная
Бит/(Пиксели*Кадры) : 0.149
Размер потока : 74,1 Мбайт (77%)
Библиотека кодирования : x264 core 58 svn-736
Настройки программы : cabac=1 / ref=2 / deblock=1:-2:-1 / analyse=0x1:0x131 / me=umh / subme=7 / brdo=1 / mixed_ref=1 / me_range=16 / chroma_me=1 / trellis=2 / 8x8dct=0 / cqm=0 / deadzone=21,11 / chroma_qp_offset=0 / threads=2 / nr=0 / decimate=0 / mbaff=0 / bframes=3 / b_pyramid=0 / b_adapt=1 / b_bias=0 / direct=3 / wpredb=1 / bime=1 / keyint=250 / keyint_min=25 / scenecut=40(pre) / rc=2pass / bitrate=448 / ratetol=1.0 / rceq='blurCplx^(1-qComp)' / qcomp=0.60 / qpmin=10 / qpmax=51 / qpstep=4 / cplxblur=20.0 / qblur=0.5 / ip_ratio=1.40 / pb_ratio=1.30
Дата кодирования : UTC 2008-12-17 09:43:12
Дата пометки : UTC 2008-12-17 09:43:20

Аудио
Идентификатор : 2
Формат : AAC
Формат/Информация : Advanced Audio Codec
Профиль формата : LC
Идентификатор кодека : mp4a-40-2
Продолжительность : 23 м. 7 с.
Вид битрейта : Переменный
Битрейт : 129 Кбит/сек
Максимальный битрейт : 172 Кбит/сек
Каналы : 2 канала
Расположение каналов : Front: L R
Частота : 48,0 КГц
Частота кадров : 46,875 кадров/сек (1024 SPF)
Метод сжатия : С потерями
Размер потока : 21,3 Мбайт (22%)
Дата кодирования : UTC 2008-12-17 09:43:18
Дата пометки : UTC 2008-12-17 09:43:20

Общее
Полное имя : C:\torrents\[ANIME4PSP] Erementar Gerad\02. Same Bond of Fate.mp4
Формат : MPEG-4
Профиль формата : Base Media
Идентификатор кодека : isom (isom/avc1)
Размер файла : 96,0 Мбайт
Продолжительность : 23 м. 7 с.
Режим общего битрейта : Переменный
Общий поток : 580 Кбит/сек
Дата кодирования : UTC 2008-12-15 13:37:16
Дата пометки : UTC 2008-12-15 13:37:16

Видео
Идентификатор : 1
Формат : AVC
Формат/Информация : Advanced Video Codec
Профиль формата : [email protected]
Настройки формата : CABAC / 2 Ref Frames
Параметр CABAC формата : Да
Параметр RefFrames формата : 2 кадра
Идентификатор кодека : avc1
Идентификатор кодека/Информация : Advanced Video Coding
Продолжительность : 23 м. 7 с.
Битрейт : 448 Кбит/сек
Максимальный битрейт : 1526 Кбит/сек
Ширина : 368 пикселей
Высота : 272 пикселя
Соотношение сторон : 4:3
Режим частоты кадров : Постоянный
Частота кадров : 29,970 (30000/1001) кадров/сек
Частота кадров в оригинале : 29,970 (29970/1000) кадров/сек
Цветовое пространство : YUV
Субдискретизация насыщенности : 4:2:0
Битовая глубина : 8 бит
Тип развёртки : Прогрессивная
Бит/(Пиксели*Кадры) : 0.149
Размер потока : 74,1 Мбайт (77%)
Библиотека кодирования : x264 core 58 svn-736
Настройки программы : cabac=1 / ref=2 / deblock=1:-2:-1 / analyse=0x1:0x131 / me=umh / subme=7 / brdo=1 / mixed_ref=1 / me_range=16 / chroma_me=1 / trellis=2 / 8x8dct=0 / cqm=0 / deadzone=21,11 / chroma_qp_offset=0 / threads=2 / nr=0 / decimate=0 / mbaff=0 / bframes=3 / b_pyramid=0 / b_adapt=1 / b_bias=0 / direct=3 / wpredb=1 / bime=1 / keyint=250 / keyint_min=25 / scenecut=40(pre) / rc=2pass / bitrate=448 / ratetol=1.0 / rceq='blurCplx^(1-qComp)' / qcomp=0.60 / qpmin=10 / qpmax=51 / qpstep=4 / cplxblur=20.0 / qblur=0.5 / ip_ratio=1.40 / pb_ratio=1.30
Дата кодирования : UTC 2008-12-15 13:37:16
Дата пометки : UTC 2008-12-15 13:37:21

Аудио
Идентификатор : 2
Формат : AAC
Формат/Информация : Advanced Audio Codec
Профиль формата : LC
Идентификатор кодека : mp4a-40-2
Продолжительность : 23 м. 7 с.
Вид битрейта : Переменный
Битрейт : 129 Кбит/сек
Максимальный битрейт : 167 Кбит/сек
Каналы : 2 канала
Расположение каналов : Front: L R
Частота : 48,0 КГц
Частота кадров : 46,875 кадров/сек (1024 SPF)
Метод сжатия : С потерями
Размер потока : 21,3 Мбайт (22%)
Дата кодирования : UTC 2008-12-15 13:37:20
Дата пометки : UTC 2008-12-15 13:37:21

Общее
Полное имя : C:\torrents\[ANIME4PSP] Erementar Gerad\03. Seven Brilliant Treasure Trees of Betrayal.mp4
Формат : MPEG-4
Профиль формата : Base Media
Идентификатор кодека : isom (isom/avc1)
Размер файла : 96,0 Мбайт
Продолжительность : 23 м. 7 с.
Режим общего битрейта : Переменный
Общий поток : 581 Кбит/сек
Дата кодирования : UTC 2008-12-17 10:17:43
Дата пометки : UTC 2008-12-17 10:17:43

Видео
Идентификатор : 1
Формат : AVC
Формат/Информация : Advanced Video Codec
Профиль формата : [email protected]
Настройки формата : CABAC / 2 Ref Frames
Параметр CABAC формата : Да
Параметр RefFrames формата : 2 кадра
Идентификатор кодека : avc1
Идентификатор кодека/Информация : Advanced Video Coding
Продолжительность : 23 м. 7 с.
Битрейт : 448 Кбит/сек
Максимальный битрейт : 2016 Кбит/сек
Ширина : 368 пикселей
Высота : 272 пикселя
Соотношение сторон : 4:3
Режим частоты кадров : Постоянный
Частота кадров : 29,970 (30000/1001) кадров/сек
Частота кадров в оригинале : 29,970 (29970/1000) кадров/сек
Цветовое пространство : YUV
Субдискретизация насыщенности : 4:2:0
Битовая глубина : 8 бит
Тип развёртки : Прогрессивная
Бит/(Пиксели*Кадры) : 0.149
Размер потока : 74,1 Мбайт (77%)
Библиотека кодирования : x264 core 58 svn-736
Настройки программы : cabac=1 / ref=2 / deblock=1:-2:-1 / analyse=0x1:0x131 / me=umh / subme=7 / brdo=1 / mixed_ref=1 / me_range=16 / chroma_me=1 / trellis=2 / 8x8dct=0 / cqm=0 / deadzone=21,11 / chroma_qp_offset=0 / threads=2 / nr=0 / decimate=0 / mbaff=0 / bframes=3 / b_pyramid=0 / b_adapt=1 / b_bias=0 / direct=3 / wpredb=1 / bime=1 / keyint=250 / keyint_min=25 / scenecut=40(pre) / rc=2pass / bitrate=448 / ratetol=1.0 / rceq='blurCplx^(1-qComp)' / qcomp=0.60 / qpmin=10 / qpmax=51 / qpstep=4 / cplxblur=20.0 / qblur=0.5 / ip_ratio=1.40 / pb_ratio=1.30
Дата кодирования : UTC 2008-12-17 10:17:43
Дата пометки : UTC 2008-12-17 10:17:50

Аудио
Идентификатор : 2
Формат : AAC
Формат/Информация : Advanced Audio Codec
Профиль формата : LC
Идентификатор кодека : mp4a-40-2
Продолжительность : 23 м. 7 с.
Вид битрейта : Переменный
Битрейт : 129 Кбит/сек
Максимальный битрейт : 155 Кбит/сек
Каналы : 2 канала
Расположение каналов : Front: L R
Частота : 48,0 КГц
Частота кадров : 46,875 кадров/сек (1024 SPF)
Метод сжатия : С потерями
Размер потока : 21,3 Мбайт (22%)
Дата кодирования : UTC 2008-12-17 10:17:49
Дата пометки : UTC 2008-12-17 10:17:50

Общее
Полное имя : C:\torrents\[ANIME4PSP] Erementar Gerad\04. Nucleus Stone of Light and Darkness.mp4
Формат : MPEG-4
Профиль формата : Base Media
Идентификатор кодека : isom (isom/avc1)
Размер файла : 96,0 Мбайт
Продолжительность : 23 м. 7 с.
Режим общего битрейта : Переменный
Общий поток : 580 Кбит/сек
Дата кодирования : UTC 2008-12-15 14:45:54
Дата пометки : UTC 2008-12-15 14:45:54

Видео
Идентификатор : 1
Формат : AVC
Формат/Информация : Advanced Video Codec
Профиль формата : [email protected]
Настройки формата : CABAC / 2 Ref Frames
Параметр CABAC формата : Да
Параметр RefFrames формата : 2 кадра
Идентификатор кодека : avc1
Идентификатор кодека/Информация : Advanced Video Coding
Продолжительность : 23 м. 7 с.
Битрейт : 448 Кбит/сек
Максимальный битрейт : 1792 Кбит/сек
Ширина : 368 пикселей
Высота : 272 пикселя
Соотношение сторон : 4:3
Режим частоты кадров : Постоянный
Частота кадров : 29,970 (30000/1001) кадров/сек
Частота кадров в оригинале : 29,970 (29970/1000) кадров/сек
Цветовое пространство : YUV
Субдискретизация насыщенности : 4:2:0
Битовая глубина : 8 бит
Тип развёртки : Прогрессивная
Бит/(Пиксели*Кадры) : 0.149
Размер потока : 74,1 Мбайт (77%)
Библиотека кодирования : x264 core 58 svn-736
Настройки программы : cabac=1 / ref=2 / deblock=1:-2:-1 / analyse=0x1:0x131 / me=umh / subme=7 / brdo=1 / mixed_ref=1 / me_range=16 / chroma_me=1 / trellis=2 / 8x8dct=0 / cqm=0 / deadzone=21,11 / chroma_qp_offset=0 / threads=2 / nr=0 / decimate=0 / mbaff=0 / bframes=3 / b_pyramid=0 / b_adapt=1 / b_bias=0 / direct=3 / wpredb=1 / bime=1 / keyint=250 / keyint_min=25 / scenecut=40(pre) / rc=2pass / bitrate=448 / ratetol=1.0 / rceq='blurCplx^(1-qComp)' / qcomp=0.60 / qpmin=10 / qpmax=51 / qpstep=4 / cplxblur=20.0 / qblur=0.5 / ip_ratio=1.40 / pb_ratio=1.30
Дата кодирования : UTC 2008-12-15 14:45:54
Дата пометки : UTC 2008-12-15 14:45:56

Аудио
Идентификатор : 2
Формат : AAC
Формат/Информация : Advanced Audio Codec
Профиль формата : LC
Идентификатор кодека : mp4a-40-2
Продолжительность : 23 м. 7 с.
Вид битрейта : Переменный
Битрейт : 129 Кбит/сек
Максимальный битрейт : 180 Кбит/сек
Каналы : 2 канала
Расположение каналов : Front: L R
Частота : 48,0 КГц
Частота кадров : 46,875 кадров/сек (1024 SPF)
Метод сжатия : С потерями
Размер потока : 21,3 Мбайт (22%)
Дата кодирования : UTC 2008-12-15 14:45:56
Дата пометки : UTC 2008-12-15 14:45:56

Общее
Полное имя : C:\torrents\[ANIME4PSP] Erementar Gerad\05. The Teardrop from that Day.mp4
Формат : MPEG-4
Профиль формата : Base Media
Идентификатор кодека : isom (isom/avc1)
Размер файла : 95,9 Мбайт
Продолжительность : 23 м. 5 с.
Режим общего битрейта : Переменный
Общий поток : 581 Кбит/сек
Дата кодирования : UTC 2008-12-16 12:36:09
Дата пометки : UTC 2008-12-16 12:36:09

Видео
Идентификатор : 1
Формат : AVC
Формат/Информация : Advanced Video Codec
Профиль формата : [email protected]
Настройки формата : CABAC / 2 Ref Frames
Параметр CABAC формата : Да
Параметр RefFrames формата : 2 кадра
Идентификатор кодека : avc1
Идентификатор кодека/Информация : Advanced Video Coding
Продолжительность : 23 м. 5 с.
Битрейт : 448 Кбит/сек
Максимальный битрейт : 1867 Кбит/сек
Ширина : 368 пикселей
Высота : 272 пикселя
Соотношение сторон : 4:3
Режим частоты кадров : Постоянный
Частота кадров : 29,970 (30000/1001) кадров/сек
Частота кадров в оригинале : 29,970 (29970/1000) кадров/сек
Цветовое пространство : YUV
Субдискретизация насыщенности : 4:2:0
Битовая глубина : 8 бит
Тип развёртки : Прогрессивная
Бит/(Пиксели*Кадры) : 0.149
Размер потока : 74,0 Мбайт (77%)
Библиотека кодирования : x264 core 58 svn-736
Настройки программы : cabac=1 / ref=2 / deblock=1:-2:-1 / analyse=0x1:0x131 / me=umh / subme=7 / brdo=1 / mixed_ref=1 / me_range=16 / chroma_me=1 / trellis=2 / 8x8dct=0 / cqm=0 / deadzone=21,11 / chroma_qp_offset=0 / threads=2 / nr=0 / decimate=0 / mbaff=0 / bframes=3 / b_pyramid=0 / b_adapt=1 / b_bias=0 / direct=3 / wpredb=1 / bime=1 / keyint=250 / keyint_min=25 / scenecut=40(pre) / rc=2pass / bitrate=448 / ratetol=1.0 / rceq='blurCplx^(1-qComp)' / qcomp=0.60 / qpmin=10 / qpmax=51 / qpstep=4 / cplxblur=20.0 / qblur=0.5 / ip_ratio=1.40 / pb_ratio=1.30
Дата кодирования : UTC 2008-12-16 12:36:09
Дата пометки : UTC 2008-12-16 12:36:12

Аудио
Идентификатор : 2
Формат : AAC
Формат/Информация : Advanced Audio Codec
Профиль формата : LC
Идентификатор кодека : mp4a-40-2
Продолжительность : 23 м. 5 с.
Вид битрейта : Переменный
Битрейт : 129 Кбит/сек
Максимальный битрейт : 169 Кбит/сек
Каналы : 2 канала
Расположение каналов : Front: L R
Частота : 48,0 КГц
Частота кадров : 46,875 кадров/сек (1024 SPF)
Метод сжатия : С потерями
Размер потока : 21,3 Мбайт (22%)
Дата кодирования : UTC 2008-12-16 12:36:11
Дата пометки : UTC 2008-12-16 12:36:12

Общее
Полное имя : C:\torrents\[ANIME4PSP] Erementar Gerad\06. Gazing at the Pleasure.mp4
Формат : MPEG-4
Профиль формата : Base Media
Идентификатор кодека : isom (isom/avc1)
Размер файла : 95,9 Мбайт
Продолжительность : 23 м. 7 с.
Режим общего битрейта : Переменный
Общий поток : 580 Кбит/сек
Дата кодирования : UTC 2008-12-15 15:54:51
Дата пометки : UTC 2008-12-15 15:54:51

Видео
Идентификатор : 1
Формат : AVC
Формат/Информация : Advanced Video Codec
Профиль формата : [email protected]
Настройки формата : CABAC / 2 Ref Frames
Параметр CABAC формата : Да
Параметр RefFrames формата : 2 кадра
Идентификатор кодека : avc1
Идентификатор кодека/Информация : Advanced Video Coding
Продолжительность : 23 м. 7 с.
Битрейт : 448 Кбит/сек
Максимальный битрейт : 1814 Кбит/сек
Ширина : 368 пикселей
Высота : 272 пикселя
Соотношение сторон : 4:3
Режим частоты кадров : Постоянный
Частота кадров : 29,970 (30000/1001) кадров/сек
Частота кадров в оригинале : 29,970 (29970/1000) кадров/сек
Цветовое пространство : YUV
Субдискретизация насыщенности : 4:2:0
Битовая глубина : 8 бит
Тип развёртки : Прогрессивная
Бит/(Пиксели*Кадры) : 0.149
Размер потока : 74,1 Мбайт (77%)
Библиотека кодирования : x264 core 58 svn-736
Настройки программы : cabac=1 / ref=2 / deblock=1:-2:-1 / analyse=0x1:0x131 / me=umh / subme=7 / brdo=1 / mixed_ref=1 / me_range=16 / chroma_me=1 / trellis=2 / 8x8dct=0 / cqm=0 / deadzone=21,11 / chroma_qp_offset=0 / threads=2 / nr=0 / decimate=0 / mbaff=0 / bframes=3 / b_pyramid=0 / b_adapt=1 / b_bias=0 / direct=3 / wpredb=1 / bime=1 / keyint=250 / keyint_min=25 / scenecut=40(pre) / rc=2pass / bitrate=448 / ratetol=1.0 / rceq='blurCplx^(1-qComp)' / qcomp=0.60 / qpmin=10 / qpmax=51 / qpstep=4 / cplxblur=20.0 / qblur=0.5 / ip_ratio=1.40 / pb_ratio=1.30
Дата кодирования : UTC 2008-12-15 15:54:51
Дата пометки : UTC 2008-12-15 15:54:53

Аудио
Идентификатор : 2
Формат : AAC
Формат/Информация : Advanced Audio Codec
Профиль формата : LC
Идентификатор кодека : mp4a-40-2
Продолжительность : 23 м. 7 с.
Вид битрейта : Переменный
Битрейт : 129 Кбит/сек
Максимальный битрейт : 194 Кбит/сек
Каналы : 2 канала
Расположение каналов : Front: L R
Частота : 48,0 КГц
Частота кадров : 46,875 кадров/сек (1024 SPF)
Метод сжатия : С потерями
Размер потока : 21,3 Мбайт (22%)
Дата кодирования : UTC 2008-12-15 15:54:53
Дата пометки : UTC 2008-12-15 15:54:53

Общее
Полное имя : C:\torrents\[ANIME4PSP] Erementar Gerad\07. The Will to Obligarth.mp4
Формат : MPEG-4
Профиль формата : Base Media
Идентификатор кодека : isom (isom/avc1)
Размер файла : 96,0 Мбайт
Продолжительность : 23 м. 7 с.
Режим общего битрейта : Переменный
Общий поток : 580 Кбит/сек
Дата кодирования : UTC 2008-12-17 10:52:11
Дата пометки : UTC 2008-12-17 10:52:11

Видео
Идентификатор : 1
Формат : AVC
Формат/Информация : Advanced Video Codec
Профиль формата : [email protected]
Настройки формата : CABAC / 2 Ref Frames
Параметр CABAC формата : Да
Параметр RefFrames формата : 2 кадра
Идентификатор кодека : avc1
Идентификатор кодека/Информация : Advanced Video Coding
Продолжительность : 23 м. 7 с.
Битрейт : 448 Кбит/сек
Максимальный битрейт : 1694 Кбит/сек
Ширина : 368 пикселей
Высота : 272 пикселя
Соотношение сторон : 4:3
Режим частоты кадров : Постоянный
Частота кадров : 29,970 (30000/1001) кадров/сек
Частота кадров в оригинале : 29,970 (29970/1000) кадров/сек
Цветовое пространство : YUV
Субдискретизация насыщенности : 4:2:0
Битовая глубина : 8 бит
Тип развёртки : Прогрессивная
Бит/(Пиксели*Кадры) : 0.149
Размер потока : 74,1 Мбайт (77%)
Библиотека кодирования : x264 core 58 svn-736
Настройки программы : cabac=1 / ref=2 / deblock=1:-2:-1 / analyse=0x1:0x131 / me=umh / subme=7 / brdo=1 / mixed_ref=1 / me_range=16 / chroma_me=1 / trellis=2 / 8x8dct=0 / cqm=0 / deadzone=21,11 / chroma_qp_offset=0 / threads=2 / nr=0 / decimate=0 / mbaff=0 / bframes=3 / b_pyramid=0 / b_adapt=1 / b_bias=0 / direct=3 / wpredb=1 / bime=1 / keyint=250 / keyint_min=25 / scenecut=40(pre) / rc=2pass / bitrate=448 / ratetol=1.0 / rceq='blurCplx^(1-qComp)' / qcomp=0.60 / qpmin=10 / qpmax=51 / qpstep=4 / cplxblur=20.0 / qblur=0.5 / ip_ratio=1.40 / pb_ratio=1.30
Дата кодирования : UTC 2008-12-17 10:52:11
Дата пометки : UTC 2008-12-17 10:52:19

Аудио
Идентификатор : 2
Формат : AAC
Формат/Информация : Advanced Audio Codec
Профиль формата : LC
Идентификатор кодека : mp4a-40-2
Продолжительность : 23 м. 7 с.
Вид битрейта : Переменный
Битрейт : 129 Кбит/сек
Максимальный битрейт : 161 Кбит/сек
Каналы : 2 канала
Расположение каналов : Front: L R
Частота : 48,0 КГц
Частота кадров : 46,875 кадров/сек (1024 SPF)
Метод сжатия : С потерями
Размер потока : 21,3 Мбайт (22%)
Дата кодирования : UTC 2008-12-17 10:52:17
Дата пометки : UTC 2008-12-17 10:52:19

Общее
Полное имя : C:\torrents\[ANIME4PSP] Erementar Gerad\08. The Terrible Edilred Hunter.mp4
Формат : MPEG-4
Профиль формата : Base Media
Идентификатор кодека : isom (isom/avc1)
Размер файла : 96,0 Мбайт
Продолжительность : 23 м. 7 с.
Режим общего битрейта : Переменный
Общий поток : 580 Кбит/сек
Дата кодирования : UTC 2008-12-16 08:55:12
Дата пометки : UTC 2008-12-16 08:55:12

Видео
Идентификатор : 1
Формат : AVC
Формат/Информация : Advanced Video Codec
Профиль формата : [email protected]
Настройки формата : CABAC / 2 Ref Frames
Параметр CABAC формата : Да
Параметр RefFrames формата : 2 кадра
Идентификатор кодека : avc1
Идентификатор кодека/Информация : Advanced Video Coding
Продолжительность : 23 м. 7 с.
Битрейт : 448 Кбит/сек
Максимальный битрейт : 1734 Кбит/сек
Ширина : 368 пикселей
Высота : 272 пикселя
Соотношение сторон : 4:3
Режим частоты кадров : Постоянный
Частота кадров : 29,970 (30000/1001) кадров/сек
Частота кадров в оригинале : 29,970 (29970/1000) кадров/сек
Цветовое пространство : YUV
Субдискретизация насыщенности : 4:2:0
Битовая глубина : 8 бит
Тип развёртки : Прогрессивная
Бит/(Пиксели*Кадры) : 0.149
Размер потока : 74,1 Мбайт (77%)
Библиотека кодирования : x264 core 58 svn-736
Настройки программы : cabac=1 / ref=2 / deblock=1:-2:-1 / analyse=0x1:0x131 / me=umh / subme=7 / brdo=1 / mixed_ref=1 / me_range=16 / chroma_me=1 / trellis=2 / 8x8dct=0 / cqm=0 / deadzone=21,11 / chroma_qp_offset=0 / threads=2 / nr=0 / decimate=0 / mbaff=0 / bframes=3 / b_pyramid=0 / b_adapt=1 / b_bias=0 / direct=3 / wpredb=1 / bime=1 / keyint=250 / keyint_min=25 / scenecut=40(pre) / rc=2pass / bitrate=448 / ratetol=1.0 / rceq='blurCplx^(1-qComp)' / qcomp=0.60 / qpmin=10 / qpmax=51 / qpstep=4 / cplxblur=20.0 / qblur=0.5 / ip_ratio=1.40 / pb_ratio=1.30
Дата кодирования : UTC 2008-12-16 08:55:12
Дата пометки : UTC 2008-12-16 08:55:20

Аудио
Идентификатор : 2
Формат : AAC
Формат/Информация : Advanced Audio Codec
Профиль формата : LC
Идентификатор кодека : mp4a-40-2
Продолжительность : 23 м. 7 с.
Вид битрейта : Переменный
Битрейт : 129 Кбит/сек
Максимальный битрейт : 167 Кбит/сек
Каналы : 2 канала
Расположение каналов : Front: L R
Частота : 48,0 КГц
Частота кадров : 46,875 кадров/сек (1024 SPF)
Метод сжатия : С потерями
Размер потока : 21,3 Мбайт (22%)
Дата кодирования : UTC 2008-12-16 08:55:18
Дата пометки : UTC 2008-12-16 08:55:20

Общее
Полное имя : C:\torrents\[ANIME4PSP] Erementar Gerad\09. The Secret of the Port Town, Razfe-Ankur.mp4
Формат : MPEG-4
Профиль формата : Base Media
Идентификатор кодека : isom (isom/avc1)
Размер файла : 95,9 Мбайт
Продолжительность : 23 м. 5 с.
Режим общего битрейта : Переменный
Общий поток : 580 Кбит/сек
Дата кодирования : UTC 2008-12-17 11:26:05
Дата пометки : UTC 2008-12-17 11:26:05

Видео
Идентификатор : 1
Формат : AVC
Формат/Информация : Advanced Video Codec
Профиль формата : [email protected]
Настройки формата : CABAC / 2 Ref Frames
Параметр CABAC формата : Да
Параметр RefFrames формата : 2 кадра
Идентификатор кодека : avc1
Идентификатор кодека/Информация : Advanced Video Coding
Продолжительность : 23 м. 5 с.
Битрейт : 448 Кбит/сек
Максимальный битрейт : 1827 Кбит/сек
Ширина : 368 пикселей
Высота : 272 пикселя
Соотношение сторон : 4:3
Режим частоты кадров : Постоянный
Частота кадров : 29,970 (30000/1001) кадров/сек
Частота кадров в оригинале : 29,970 (29970/1000) кадров/сек
Цветовое пространство : YUV
Субдискретизация насыщенности : 4:2:0
Битовая глубина : 8 бит
Тип развёртки : Прогрессивная
Бит/(Пиксели*Кадры) : 0.149
Размер потока : 74,0 Мбайт (77%)
Библиотека кодирования : x264 core 58 svn-736
Настройки программы : cabac=1 / ref=2 / deblock=1:-2:-1 / analyse=0x1:0x131 / me=umh / subme=7 / brdo=1 / mixed_ref=1 / me_range=16 / chroma_me=1 / trellis=2 / 8x8dct=0 / cqm=0 / deadzone=21,11 / chroma_qp_offset=0 / threads=2 / nr=0 / decimate=0 / mbaff=0 / bframes=3 / b_pyramid=0 / b_adapt=1 / b_bias=0 / direct=3 / wpredb=1 / bime=1 / keyint=250 / keyint_min=25 / scenecut=40(pre) / rc=2pass / bitrate=448 / ratetol=1.0 / rceq='blurCplx^(1-qComp)' / qcomp=0.60 / qpmin=10 / qpmax=51 / qpstep=4 / cplxblur=20.0 / qblur=0.5 / ip_ratio=1.40 / pb_ratio=1.30
Дата кодирования : UTC 2008-12-17 11:26:05
Дата пометки : UTC 2008-12-17 11:26:10

Аудио
Идентификатор : 2
Формат : AAC
Формат/Информация : Advanced Audio Codec
Профиль формата : LC
Идентификатор кодека : mp4a-40-2
Продолжительность : 23 м. 5 с.
Вид битрейта : Переменный
Битрейт : 129 Кбит/сек
Максимальный битрейт : 174 Кбит/сек
Каналы : 2 канала
Расположение каналов : Front: L R
Частота : 48,0 КГц
Частота кадров : 46,875 кадров/сек (1024 SPF)
Метод сжатия : С потерями
Размер потока : 21,3 Мбайт (22%)
Дата кодирования : UTC 2008-12-17 11:26:09
Дата пометки : UTC 2008-12-17 11:26:10

Общее
Полное имя : C:\torrents\[ANIME4PSP] Erementar Gerad\10. Gambling Place of Love and Desire, Milliard-Tray.mp4
Формат : MPEG-4
Профиль формата : Base Media
Идентификатор кодека : isom (isom/avc1)
Размер файла : 96,0 Мбайт
Продолжительность : 23 м. 7 с.
Режим общего битрейта : Переменный
Общий поток : 580 Кбит/сек
Дата кодирования : UTC 2008-12-17 12:00:19
Дата пометки : UTC 2008-12-17 12:00:19

Видео
Идентификатор : 1
Формат : AVC
Формат/Информация : Advanced Video Codec
Профиль формата : [email protected]
Настройки формата : CABAC / 2 Ref Frames
Параметр CABAC формата : Да
Параметр RefFrames формата : 2 кадра
Идентификатор кодека : avc1
Идентификатор кодека/Информация : Advanced Video Coding
Продолжительность : 23 м. 7 с.
Битрейт : 448 Кбит/сек
Максимальный битрейт : 1756 Кбит/сек
Ширина : 368 пикселей
Высота : 272 пикселя
Соотношение сторон : 4:3
Режим частоты кадров : Постоянный
Частота кадров : 29,970 (30000/1001) кадров/сек
Частота кадров в оригинале : 29,970 (29970/1000) кадров/сек
Цветовое пространство : YUV
Субдискретизация насыщенности : 4:2:0
Битовая глубина : 8 бит
Тип развёртки : Прогрессивная
Бит/(Пиксели*Кадры) : 0.149
Размер потока : 74,1 Мбайт (77%)
Библиотека кодирования : x264 core 58 svn-736
Настройки программы : cabac=1 / ref=2 / deblock=1:-2:-1 / analyse=0x1:0x131 / me=umh / subme=7 / brdo=1 / mixed_ref=1 / me_range=16 / chroma_me=1 / trellis=2 / 8x8dct=0 / cqm=0 / deadzone=21,11 / chroma_qp_offset=0 / threads=2 / nr=0 / decimate=0 / mbaff=0 / bframes=3 / b_pyramid=0 / b_adapt=1 / b_bias=0 / direct=3 / wpredb=1 / bime=1 / keyint=250 / keyint_min=25 / scenecut=40(pre) / rc=2pass / bitrate=448 / ratetol=1.0 / rceq='blurCplx^(1-qComp)' / qcomp=0.60 / qpmin=10 / qpmax=51 / qpstep=4 / cplxblur=20.0 / qblur=0.5 / ip_ratio=1.40 / pb_ratio=1.30
Дата кодирования : UTC 2008-12-17 12:00:19
Дата пометки : UTC 2008-12-17 12:00:28

Аудио
Идентификатор : 2
Формат : AAC
Формат/Информация : Advanced Audio Codec
Профиль формата : LC
Идентификатор кодека : mp4a-40-2
Продолжительность : 23 м. 7 с.
Вид битрейта : Переменный
Битрейт : 129 Кбит/сек
Максимальный битрейт : 186 Кбит/сек
Каналы : 2 канала
Расположение каналов : Front: L R
Частота : 48,0 КГц
Частота кадров : 46,875 кадров/сек (1024 SPF)
Метод сжатия : С потерями
Размер потока : 21,3 Мбайт (22%)
Дата кодирования : UTC 2008-12-17 12:00:27
Дата пометки : UTC 2008-12-17 12:00:28

Общее
Полное имя : C:\torrents\[ANIME4PSP] Erementar Gerad\11. Class Fighter of Revenge.mp4
Формат : MPEG-4
Профиль формата : Base Media
Идентификатор кодека : isom (isom/avc1)
Размер файла : 96,0 Мбайт
Продолжительность : 23 м. 7 с.
Режим общего битрейта : Переменный
Общий поток : 580 Кбит/сек
Дата кодирования : UTC 2008-12-17 12:34:52
Дата пометки : UTC 2008-12-17 12:34:52

Видео
Идентификатор : 1
Формат : AVC
Формат/Информация : Advanced Video Codec
Профиль формата : [email protected]
Настройки формата : CABAC / 2 Ref Frames
Параметр CABAC формата : Да
Параметр RefFrames формата : 2 кадра
Идентификатор кодека : avc1
Идентификатор кодека/Информация : Advanced Video Coding
Продолжительность : 23 м. 7 с.
Битрейт : 448 Кбит/сек
Максимальный битрейт : 1590 Кбит/сек
Ширина : 368 пикселей
Высота : 272 пикселя
Соотношение сторон : 4:3
Режим частоты кадров : Постоянный
Частота кадров : 29,970 (30000/1001) кадров/сек
Частота кадров в оригинале : 29,970 (29970/1000) кадров/сек
Цветовое пространство : YUV
Субдискретизация насыщенности : 4:2:0
Битовая глубина : 8 бит
Тип развёртки : Прогрессивная
Бит/(Пиксели*Кадры) : 0.149
Размер потока : 74,1 Мбайт (77%)
Библиотека кодирования : x264 core 58 svn-736
Настройки программы : cabac=1 / ref=2 / deblock=1:-2:-1 / analyse=0x1:0x131 / me=umh / subme=7 / brdo=1 / mixed_ref=1 / me_range=16 / chroma_me=1 / trellis=2 / 8x8dct=0 / cqm=0 / deadzone=21,11 / chroma_qp_offset=0 / threads=2 / nr=0 / decimate=0 / mbaff=0 / bframes=3 / b_pyramid=0 / b_adapt=1 / b_bias=0 / direct=3 / wpredb=1 / bime=1 / keyint=250 / keyint_min=25 / scenecut=40(pre) / rc=2pass / bitrate=448 / ratetol=1.0 / rceq='blurCplx^(1-qComp)' / qcomp=0.60 / qpmin=10 / qpmax=51 / qpstep=4 / cplxblur=20.0 / qblur=0.5 / ip_ratio=1.40 / pb_ratio=1.30
Дата кодирования : UTC 2008-12-17 12:34:52
Дата пометки : UTC 2008-12-17 12:34:58

Аудио
Идентификатор : 2
Формат : AAC
Формат/Информация : Advanced Audio Codec
Профиль формата : LC
Идентификатор кодека : mp4a-40-2
Продолжительность : 23 м. 7 с.
Вид битрейта : Переменный
Битрейт : 129 Кбит/сек
Максимальный битрейт : 168 Кбит/сек
Каналы : 2 канала
Расположение каналов : Front: L R
Частота : 48,0 КГц
Частота кадров : 46,875 кадров/сек (1024 SPF)
Метод сжатия : С потерями
Размер потока : 21,3 Мбайт (22%)
Дата кодирования : UTC 2008-12-17 12:34:55
Дата пометки : UTC 2008-12-17 12:34:58

Общее
Полное имя : C:\torrents\[ANIME4PSP] Erementar Gerad\12. Dash into Freedom.mp4
Формат : MPEG-4
Профиль формата : Base Media
Идентификатор кодека : isom (isom/avc1)
Размер файла : 96,0 Мбайт
Продолжительность : 23 м. 7 с.
Режим общего битрейта : Переменный
Общий поток : 580 Кбит/сек
Дата кодирования : UTC 2008-12-17 13:08:49
Дата пометки : UTC 2008-12-17 13:08:49

Видео
Идентификатор : 1
Формат : AVC
Формат/Информация : Advanced Video Codec
Профиль формата : [email protected]
Настройки формата : CABAC / 2 Ref Frames
Параметр CABAC формата : Да
Параметр RefFrames формата : 2 кадра
Идентификатор кодека : avc1
Идентификатор кодека/Информация : Advanced Video Coding
Продолжительность : 23 м. 7 с.
Битрейт : 448 Кбит/сек
Максимальный битрейт : 1880 Кбит/сек
Ширина : 368 пикселей
Высота : 272 пикселя
Соотношение сторон : 4:3
Режим частоты кадров : Постоянный
Частота кадров : 29,970 (30000/1001) кадров/сек
Частота кадров в оригинале : 29,970 (29970/1000) кадров/сек
Цветовое пространство : YUV
Субдискретизация насыщенности : 4:2:0
Битовая глубина : 8 бит
Тип развёртки : Прогрессивная
Бит/(Пиксели*Кадры) : 0.149
Размер потока : 74,1 Мбайт (77%)
Библиотека кодирования : x264 core 58 svn-736
Настройки программы : cabac=1 / ref=2 / deblock=1:-2:-1 / analyse=0x1:0x131 / me=umh / subme=7 / brdo=1 / mixed_ref=1 / me_range=16 / chroma_me=1 / trellis=2 / 8x8dct=0 / cqm=0 / deadzone=21,11 / chroma_qp_offset=0 / threads=2 / nr=0 / decimate=0 / mbaff=0 / bframes=3 / b_pyramid=0 / b_adapt=1 / b_bias=0 / direct=3 / wpredb=1 / bime=1 / keyint=250 / keyint_min=25 / scenecut=40(pre) / rc=2pass / bitrate=448 / ratetol=1.0 / rceq='blurCplx^(1-qComp)' / qcomp=0.60 / qpmin=10 / qpmax=51 / qpstep=4 / cplxblur=20.0 / qblur=0.5 / ip_ratio=1.40 / pb_ratio=1.30
Дата кодирования : UTC 2008-12-17 13:08:49
Дата пометки : UTC 2008-12-17 13:08:53

Аудио
Идентификатор : 2
Формат : AAC
Формат/Информация : Advanced Audio Codec
Профиль формата : LC
Идентификатор кодека : mp4a-40-2
Продолжительность : 23 м. 7 с.
Вид битрейта : Переменный
Битрейт : 129 Кбит/сек
Максимальный битрейт : 184 Кбит/сек
Каналы : 2 канала
Расположение каналов : Front: L R
Частота : 48,0 КГц
Частота кадров : 46,875 кадров/сек (1024 SPF)
Метод сжатия : С потерями
Размер потока : 21,3 Мбайт (22%)
Дата кодирования : UTC 2008-12-17 13:08:53
Дата пометки : UTC 2008-12-17 13:08:53

Общее
Полное имя : C:\torrents\[ANIME4PSP] Erementar Gerad\13. Arcaile.mp4
Формат : MPEG-4
Профиль формата : Base Media
Идентификатор кодека : isom (isom/avc1)
Размер файла : 96,0 Мбайт
Продолжительность : 23 м. 7 с.
Режим общего битрейта : Переменный
Общий поток : 580 Кбит/сек
Дата кодирования : UTC 2008-12-17 13:43:23
Дата пометки : UTC 2008-12-17 13:43:23

Видео
Идентификатор : 1
Формат : AVC
Формат/Информация : Advanced Video Codec
Профиль формата : [email protected]
Настройки формата : CABAC / 2 Ref Frames
Параметр CABAC формата : Да
Параметр RefFrames формата : 2 кадра
Идентификатор кодека : avc1
Идентификатор кодека/Информация : Advanced Video Coding
Продолжительность : 23 м. 7 с.
Битрейт : 448 Кбит/сек
Максимальный битрейт : 2205 Кбит/сек
Ширина : 368 пикселей
Высота : 272 пикселя
Соотношение сторон : 4:3
Режим частоты кадров : Постоянный
Частота кадров : 29,970 (30000/1001) кадров/сек
Частота кадров в оригинале : 29,970 (29970/1000) кадров/сек
Цветовое пространство : YUV
Субдискретизация насыщенности : 4:2:0
Битовая глубина : 8 бит
Тип развёртки : Прогрессивная
Бит/(Пиксели*Кадры) : 0.149
Размер потока : 74,1 Мбайт (77%)
Библиотека кодирования : x264 core 58 svn-736
Настройки программы : cabac=1 / ref=2 / deblock=1:-2:-1 / analyse=0x1:0x131 / me=umh / subme=7 / brdo=1 / mixed_ref=1 / me_range=16 / chroma_me=1 / trellis=2 / 8x8dct=0 / cqm=0 / deadzone=21,11 / chroma_qp_offset=0 / threads=2 / nr=0 / decimate=0 / mbaff=0 / bframes=3 / b_pyramid=0 / b_adapt=1 / b_bias=0 / direct=3 / wpredb=1 / bime=1 / keyint=250 / keyint_min=25 / scenecut=40(pre) / rc=2pass / bitrate=448 / ratetol=1.0 / rceq='blurCplx^(1-qComp)' / qcomp=0.60 / qpmin=10 / qpmax=51 / qpstep=4 / cplxblur=20.0 / qblur=0.5 / ip_ratio=1.40 / pb_ratio=1.30
Дата кодирования : UTC 2008-12-17 13:43:23
Дата пометки : UTC 2008-12-17 13:43:33

Аудио
Идентификатор : 2
Формат : AAC
Формат/Информация : Advanced Audio Codec
Профиль формата : LC
Идентификатор кодека : mp4a-40-2
Продолжительность : 23 м. 7 с.
Вид битрейта : Переменный
Битрейт : 129 Кбит/сек
Максимальный битрейт : 199 Кбит/сек
Каналы : 2 канала
Расположение каналов : Front: L R
Частота : 48,0 КГц
Частота кадров : 46,875 кадров/сек (1024 SPF)
Метод сжатия : С потерями
Размер потока : 21,3 Мбайт (22%)
Дата кодирования : UTC 2008-12-17 13:43:32
Дата пометки : UTC 2008-12-17 13:43:33

Общее
Полное имя : C:\torrents\[ANIME4PSP] Erementar Gerad\14. Edil Raid Hunter, Second Meeting.mp4
Формат : MPEG-4
Профиль формата : Base Media
Идентификатор кодека : isom (isom/avc1)
Размер файла : 96,0 Мбайт
Продолжительность : 23 м. 7 с.
Режим общего битрейта : Переменный
Общий поток : 580 Кбит/сек
Дата кодирования : UTC 2008-12-17 14:18:18
Дата пометки : UTC 2008-12-17 14:18:18

Видео
Идентификатор : 1
Формат : AVC
Формат/Информация : Advanced Video Codec
Профиль формата : [email protected]
Настройки формата : CABAC / 2 Ref Frames
Параметр CABAC формата : Да
Параметр RefFrames формата : 2 кадра
Идентификатор кодека : avc1
Идентификатор кодека/Информация : Advanced Video Coding
Продолжительность : 23 м. 7 с.
Битрейт : 448 Кбит/сек
Максимальный битрейт : 1715 Кбит/сек
Ширина : 368 пикселей
Высота : 272 пикселя
Соотношение сторон : 4:3
Режим частоты кадров : Постоянный
Частота кадров : 29,970 (30000/1001) кадров/сек
Частота кадров в оригинале : 29,970 (29970/1000) кадров/сек
Цветовое пространство : YUV
Субдискретизация насыщенности : 4:2:0
Битовая глубина : 8 бит
Тип развёртки : Прогрессивная
Бит/(Пиксели*Кадры) : 0.149
Размер потока : 74,1 Мбайт (77%)
Библиотека кодирования : x264 core 58 svn-736
Настройки программы : cabac=1 / ref=2 / deblock=1:-2:-1 / analyse=0x1:0x131 / me=umh / subme=7 / brdo=1 / mixed_ref=1 / me_range=16 / chroma_me=1 / trellis=2 / 8x8dct=0 / cqm=0 / deadzone=21,11 / chroma_qp_offset=0 / threads=2 / nr=0 / decimate=0 / mbaff=0 / bframes=3 / b_pyramid=0 / b_adapt=1 / b_bias=0 / direct=3 / wpredb=1 / bime=1 / keyint=250 / keyint_min=25 / scenecut=40(pre) / rc=2pass / bitrate=448 / ratetol=1.0 / rceq='blurCplx^(1-qComp)' / qcomp=0.60 / qpmin=10 / qpmax=51 / qpstep=4 / cplxblur=20.0 / qblur=0.5 / ip_ratio=1.40 / pb_ratio=1.30
Дата кодирования : UTC 2008-12-17 14:18:18
Дата пометки : UTC 2008-12-17 14:18:30

Аудио
Идентификатор : 2
Формат : AAC
Формат/Информация : Advanced Audio Codec
Профиль формата : LC
Идентификатор кодека : mp4a-40-2
Продолжительность : 23 м. 7 с.
Вид битрейта : Переменный
Битрейт : 129 Кбит/сек
Максимальный битрейт : 204 Кбит/сек
Каналы : 2 канала
Расположение каналов : Front: L R
Частота : 48,0 КГц
Частота кадров : 46,875 кадров/сек (1024 SPF)
Метод сжатия : С потерями
Размер потока : 21,3 Мбайт (22%)
Дата кодирования : UTC 2008-12-17 14:18:30
Дата пометки : UTC 2008-12-17 14:18:30

Общее
Полное имя : C:\torrents\[ANIME4PSP] Erementar Gerad\15. El-Blanker.mp4
Формат : MPEG-4
Профиль формата : Base Media
Идентификатор кодека : isom (isom/avc1)
Размер файла : 95,9 Мбайт
Продолжительность : 23 м. 7 с.
Режим общего битрейта : Переменный
Общий поток : 580 Кбит/сек
Дата кодирования : UTC 2008-12-17 14:53:04
Дата пометки : UTC 2008-12-17 14:53:04

Видео
Идентификатор : 1
Формат : AVC
Формат/Информация : Advanced Video Codec
Профиль формата : [email protected]
Настройки формата : CABAC / 2 Ref Frames
Параметр CABAC формата : Да
Параметр RefFrames формата : 2 кадра
Идентификатор кодека : avc1
Идентификатор кодека/Информация : Advanced Video Coding
Продолжительность : 23 м. 7 с.
Битрейт : 448 Кбит/сек
Максимальный битрейт : 1508 Кбит/сек
Ширина : 368 пикселей
Высота : 272 пикселя
Соотношение сторон : 4:3
Режим частоты кадров : Постоянный
Частота кадров : 29,970 (30000/1001) кадров/сек
Частота кадров в оригинале : 29,970 (29970/1000) кадров/сек
Цветовое пространство : YUV
Субдискретизация насыщенности : 4:2:0
Битовая глубина : 8 бит
Тип развёртки : Прогрессивная
Бит/(Пиксели*Кадры) : 0.149
Размер потока : 74,1 Мбайт (77%)
Библиотека кодирования : x264 core 58 svn-736
Настройки программы : cabac=1 / ref=2 / deblock=1:-2:-1 / analyse=0x1:0x131 / me=umh / subme=7 / brdo=1 / mixed_ref=1 / me_range=16 / chroma_me=1 / trellis=2 / 8x8dct=0 / cqm=0 / deadzone=21,11 / chroma_qp_offset=0 / threads=2 / nr=0 / decimate=0 / mbaff=0 / bframes=3 / b_pyramid=0 / b_adapt=1 / b_bias=0 / direct=3 / wpredb=1 / bime=1 / keyint=250 / keyint_min=25 / scenecut=40(pre) / rc=2pass / bitrate=448 / ratetol=1.0 / rceq='blurCplx^(1-qComp)' / qcomp=0.60 / qpmin=10 / qpmax=51 / qpstep=4 / cplxblur=20.0 / qblur=0.5 / ip_ratio=1.40 / pb_ratio=1.30
Дата кодирования : UTC 2008-12-17 14:53:04
Дата пометки : UTC 2008-12-17 14:53:34

Аудио
Идентификатор : 2
Формат : AAC
Формат/Информация : Advanced Audio Codec
Профиль формата : LC
Идентификатор кодека : mp4a-40-2
Продолжительность : 23 м. 7 с.
Вид битрейта : Переменный
Битрейт : 129 Кбит/сек
Максимальный битрейт : 185 Кбит/сек
Каналы : 2 канала
Расположение каналов : Front: L R
Частота : 48,0 КГц
Частота кадров : 46,875 кадров/сек (1024 SPF)
Метод сжатия : С потерями
Размер потока : 21,3 Мбайт (22%)
Дата кодирования : UTC 2008-12-17 14:53:33
Дата пометки : UTC 2008-12-17 14:53:34

Общее
Полное имя : C:\torrents\[ANIME4PSP] Erementar Gerad\16. Remembering the Wild Bride.mp4
Формат : MPEG-4
Профиль формата : Base Media
Идентификатор кодека : isom (isom/avc1)
Размер файла : 96,0 Мбайт
Продолжительность : 23 м. 7 с.
Режим общего битрейта : Переменный
Общий поток : 580 Кбит/сек
Дата кодирования : UTC 2008-12-17 15:29:17
Дата пометки : UTC 2008-12-17 15:29:17

Видео
Идентификатор : 1
Формат : AVC
Формат/Информация : Advanced Video Codec
Профиль формата : [email protected]
Настройки формата : CABAC / 2 Ref Frames
Параметр CABAC формата : Да
Параметр RefFrames формата : 2 кадра
Идентификатор кодека : avc1
Идентификатор кодека/Информация : Advanced Video Coding
Продолжительность : 23 м. 7 с.
Битрейт : 448 Кбит/сек
Максимальный битрейт : 2032 Кбит/сек
Ширина : 368 пикселей
Высота : 272 пикселя
Соотношение сторон : 4:3
Режим частоты кадров : Постоянный
Частота кадров : 29,970 (30000/1001) кадров/сек
Частота кадров в оригинале : 29,970 (29970/1000) кадров/сек
Цветовое пространство : YUV
Субдискретизация насыщенности : 4:2:0
Битовая глубина : 8 бит
Тип развёртки : Прогрессивная
Бит/(Пиксели*Кадры) : 0.149
Размер потока : 74,1 Мбайт (77%)
Библиотека кодирования : x264 core 58 svn-736
Настройки программы : cabac=1 / ref=2 / deblock=1:-2:-1 / analyse=0x1:0x131 / me=umh / subme=7 / brdo=1 / mixed_ref=1 / me_range=16 / chroma_me=1 / trellis=2 / 8x8dct=0 / cqm=0 / deadzone=21,11 / chroma_qp_offset=0 / threads=2 / nr=0 / decimate=0 / mbaff=0 / bframes=3 / b_pyramid=0 / b_adapt=1 / b_bias=0 / direct=3 / wpredb=1 / bime=1 / keyint=250 / keyint_min=25 / scenecut=40(pre) / rc=2pass / bitrate=448 / ratetol=1.0 / rceq='blurCplx^(1-qComp)' / qcomp=0.60 / qpmin=10 / qpmax=51 / qpstep=4 / cplxblur=20.0 / qblur=0.5 / ip_ratio=1.40 / pb_ratio=1.30
Дата кодирования : UTC 2008-12-17 15:29:17
Дата пометки : UTC 2008-12-17 15:29:19

Аудио
Идентификатор : 2
Формат : AAC
Формат/Информация : Advanced Audio Codec
Профиль формата : LC
Идентификатор кодека : mp4a-40-2
Продолжительность : 23 м. 7 с.
Вид битрейта : Переменный
Битрейт : 129 Кбит/сек
Максимальный битрейт : 177 Кбит/сек
Каналы : 2 канала
Расположение каналов : Front: L R
Частота : 48,0 КГц
Частота кадров : 46,875 кадров/сек (1024 SPF)
Метод сжатия : С потерями
Размер потока : 21,3 Мбайт (22%)
Дата кодирования : UTC 2008-12-17 15:29:19
Дата пометки : UTC 2008-12-17 15:29:19


Трекер:  [ 02-Июн-2018 22:36 ]

  

Скачать .torrent

Размер .torrent файла 15 KB


Размер: 2.44 GB
Хэш (hash) релиза: 1af5bf6713e7c311bd16bc835a115e63221395a5
Подписка на обновления:

Еще никто не оставлял запись к записи скачать торрент [ANIME4PSP] Воздушные Пираты Erementar Gerad . Будь первым!

!Обратная связь