Matthew Armitage - New Tide 2018 | No dormiras 2018 WEB-DL 1080p ExKinoRay | Finally Living Together with my Anti-Fan

Скачать через торрент [ANIME4PSP] Вандред Vandread 1st Stage Фильм бесплатно в хорошем качестве torrent

Скачивайте на UnionPeer.org фильмы через торрент без регистрации. Новинки кино в хорошем качестве через торрент. На UnionPeer.org можно скачать через торрент фильмы 2014 и 2015 годов. Самые новые фильмы.

Скачать торрент [ANIME4PSP] Вандред Vandread 1st Stage бесплатно через .torrent фильм мультфильм сериал

Статистика раздачи
Размер:  1.35 GB   |    Зарегистрирован:  2 месяца 15 дней   |    .torrent скачан:  21 раз   |   
Раздают:  1  
   
загрузка...
 
Автор Сообщение

Galfimbul

avatar Galfimbul


Вандред
Vandread 1st Stage / ヴァンドレッド
Год выпуска: 2000
Страна: Япония
Жанр: фантастика, меха, комедия, сёнэн
Продолжительность: 13 серий x 23 мин
Перевод: Русский хардсаб
Режиссер: Мори Такэси / Mori Takeshi / 森健 / 森武
Автор оригинала: Мори Такэси / Mori Takeshi / 森健 / 森武
Студия:

Описание: Молодой техник Хибики только в своих мечтах мог стать пилотом бронированного космического меха. Волею случая и собственной заносчивости он попадает на корабль-“мехоносец” который вылетает на решающую битву с беспощадным и страшным врагом.
И враг этот – женщины, которые давным-давно обособились от особей мужского пола и живут на другой планете. Пойманный охраной корабля, возможно, Хибики так и закончил бы свои дни в карцере, если бы не одно но – мужчины проигрывают битву, все кто может – эвакуируются, а Хибики и ещё несколько мужчин, вместе с полуразрушенным кораблём попадают в цепкие женские руки. Воспитанный на суровой пропаганде, Хибики ждёт незавидной участи - и не обманывается в своих ожиданиях, вновь попадая в карцер. Для женщин он – любопытный зверек, который может и укусить, а для него женщины – страшные людоедки. И любовью они друг к другу вовсе не пылают. Однако всё меняет внезапное нападение неведомого противника на штурмовой корабль женщин - каждый пилот становится на вес золота.


Серия Vandread:

Вандред - ТВ (13 эп.), первый сезон, 2000
Вандред: Второй уровень - ТВ (13 эп.), второй сезон, 2001
Качество: DVDRip
Формат: MP4
Видео кодек: H.264
Аудио кодек: AAC
Видео: MPEG4 Video (H264, 2 pass, Extreme) 480x272 23.97fps, 512 kbps
Аудио: AAC 48000Hz stereo, 128 kbps
01. Boy Meets Girl
02. And... I've Lost My Way
03. This is the Path I Choose to Live
04. I Want to Know More About You
05. Sweet Temptation
06. What a Wonderful World
07. Easy Life
08. Impossible!
09. More Barbaric Than Heaven
10. White Love
11. Together
12. They Don't Care About Us
13. To Feel the Fire
Общее
Полное имя : C:\torrents\[ANIME4PSP] Vandread 1st Stage\01. Boy Meets Girl.mp4
Формат : MPEG-4
Профиль формата : Base Media
Идентификатор кодека : isom (isom/avc1)
Размер файла : 110 Мбайт
Продолжительность : 23 м. 57 с.
Режим общего битрейта : Переменный
Общий поток : 644 Кбит/сек
Дата кодирования : UTC 2008-12-04 15:38:42
Дата пометки : UTC 2008-12-04 15:38:42

Видео
Идентификатор : 1
Формат : AVC
Формат/Информация : Advanced Video Codec
Профиль формата : [email protected]
Настройки формата : CABAC / 2 Ref Frames
Параметр CABAC формата : Да
Параметр RefFrames формата : 2 кадра
Идентификатор кодека : avc1
Идентификатор кодека/Информация : Advanced Video Coding
Продолжительность : 23 м. 57 с.
Битрейт : 512 Кбит/сек
Максимальный битрейт : 2877 Кбит/сек
Ширина : 480 пикселей
Высота : 272 пикселя
Соотношение сторон : 16:9
Режим частоты кадров : Постоянный
Частота кадров : 23,976 (24000/1001) кадра/сек
Цветовое пространство : YUV
Субдискретизация насыщенности : 4:2:0
Битовая глубина : 8 бит
Тип развёртки : Прогрессивная
Бит/(Пиксели*Кадры) : 0.164
Размер потока : 87,8 Мбайт (79%)
Библиотека кодирования : x264 core 58 svn-736
Настройки программы : cabac=1 / ref=2 / deblock=1:-2:-1 / analyse=0x1:0x131 / me=umh / subme=7 / brdo=1 / mixed_ref=1 / me_range=16 / chroma_me=1 / trellis=2 / 8x8dct=0 / cqm=0 / deadzone=21,11 / chroma_qp_offset=0 / threads=2 / nr=0 / decimate=0 / mbaff=0 / bframes=3 / b_pyramid=0 / b_adapt=1 / b_bias=0 / direct=3 / wpredb=1 / bime=1 / keyint=250 / keyint_min=25 / scenecut=40(pre) / rc=2pass / bitrate=512 / ratetol=1.0 / rceq='blurCplx^(1-qComp)' / qcomp=0.60 / qpmin=10 / qpmax=51 / qpstep=4 / cplxblur=20.0 / qblur=0.5 / ip_ratio=1.40 / pb_ratio=1.30
Дата кодирования : UTC 2008-12-04 15:38:42
Дата пометки : UTC 2008-12-04 15:38:54

Аудио
Идентификатор : 2
Формат : AAC
Формат/Информация : Advanced Audio Codec
Профиль формата : LC
Идентификатор кодека : mp4a-40-2
Продолжительность : 23 м. 57 с.
Вид битрейта : Переменный
Битрейт : 129 Кбит/сек
Максимальный битрейт : 156 Кбит/сек
Каналы : 2 канала
Расположение каналов : Front: L R
Частота : 48,0 КГц
Частота кадров : 46,875 кадров/сек (1024 SPF)
Метод сжатия : С потерями
Размер потока : 22,1 Мбайт (20%)
Дата кодирования : UTC 2008-12-04 15:38:53
Дата пометки : UTC 2008-12-04 15:38:54
Общее
Полное имя : C:\torrents\[ANIME4PSP] Vandread 1st Stage\02. And... I've Lost My Way.mp4
Формат : MPEG-4
Профиль формата : Base Media
Идентификатор кодека : isom (isom/avc1)
Размер файла : 106 Мбайт
Продолжительность : 22 м. 56 с.
Режим общего битрейта : Переменный
Общий поток : 644 Кбит/сек
Дата кодирования : UTC 2008-12-04 12:08:04
Дата пометки : UTC 2008-12-04 12:08:04

Видео
Идентификатор : 1
Формат : AVC
Формат/Информация : Advanced Video Codec
Профиль формата : [email protected]
Настройки формата : CABAC / 2 Ref Frames
Параметр CABAC формата : Да
Параметр RefFrames формата : 2 кадра
Идентификатор кодека : avc1
Идентификатор кодека/Информация : Advanced Video Coding
Продолжительность : 22 м. 56 с.
Битрейт : 512 Кбит/сек
Максимальный битрейт : 3000 Кбит/сек
Ширина : 480 пикселей
Высота : 272 пикселя
Соотношение сторон : 16:9
Режим частоты кадров : Постоянный
Частота кадров : 23,976 (24000/1001) кадра/сек
Цветовое пространство : YUV
Субдискретизация насыщенности : 4:2:0
Битовая глубина : 8 бит
Тип развёртки : Прогрессивная
Бит/(Пиксели*Кадры) : 0.164
Размер потока : 84,0 Мбайт (79%)
Библиотека кодирования : x264 core 58 svn-736
Настройки программы : cabac=1 / ref=2 / deblock=1:-2:-1 / analyse=0x1:0x131 / me=umh / subme=7 / brdo=1 / mixed_ref=1 / me_range=16 / chroma_me=1 / trellis=2 / 8x8dct=0 / cqm=0 / deadzone=21,11 / chroma_qp_offset=0 / threads=2 / nr=0 / decimate=0 / mbaff=0 / bframes=3 / b_pyramid=0 / b_adapt=1 / b_bias=0 / direct=3 / wpredb=1 / bime=1 / keyint=250 / keyint_min=25 / scenecut=40(pre) / rc=2pass / bitrate=512 / ratetol=1.0 / rceq='blurCplx^(1-qComp)' / qcomp=0.60 / qpmin=10 / qpmax=51 / qpstep=4 / cplxblur=20.0 / qblur=0.5 / ip_ratio=1.40 / pb_ratio=1.30
Дата кодирования : UTC 2008-12-04 12:08:04
Дата пометки : UTC 2008-12-04 12:08:08

Аудио
Идентификатор : 2
Формат : AAC
Формат/Информация : Advanced Audio Codec
Профиль формата : LC
Идентификатор кодека : mp4a-40-2
Продолжительность : 22 м. 56 с.
Вид битрейта : Переменный
Битрейт : 129 Кбит/сек
Максимальный битрейт : 168 Кбит/сек
Каналы : 2 канала
Расположение каналов : Front: L R
Частота : 48,0 КГц
Частота кадров : 46,875 кадров/сек (1024 SPF)
Метод сжатия : С потерями
Размер потока : 21,2 Мбайт (20%)
Дата кодирования : UTC 2008-12-04 12:08:07
Дата пометки : UTC 2008-12-04 12:08:08
Общее
Полное имя : C:\torrents\[ANIME4PSP] Vandread 1st Stage\03. This is the Path I Choose to Live.mp4
Формат : MPEG-4
Профиль формата : Base Media
Идентификатор кодека : isom (isom/avc1)
Размер файла : 106 Мбайт
Продолжительность : 22 м. 56 с.
Режим общего битрейта : Переменный
Общий поток : 644 Кбит/сек
Дата кодирования : UTC 2008-12-04 11:34:38
Дата пометки : UTC 2008-12-04 11:34:38

Видео
Идентификатор : 1
Формат : AVC
Формат/Информация : Advanced Video Codec
Профиль формата : [email protected]
Настройки формата : CABAC / 2 Ref Frames
Параметр CABAC формата : Да
Параметр RefFrames формата : 2 кадра
Идентификатор кодека : avc1
Идентификатор кодека/Информация : Advanced Video Coding
Продолжительность : 22 м. 56 с.
Битрейт : 512 Кбит/сек
Максимальный битрейт : 2904 Кбит/сек
Ширина : 480 пикселей
Высота : 272 пикселя
Соотношение сторон : 16:9
Режим частоты кадров : Постоянный
Частота кадров : 23,976 (24000/1001) кадра/сек
Цветовое пространство : YUV
Субдискретизация насыщенности : 4:2:0
Битовая глубина : 8 бит
Тип развёртки : Прогрессивная
Бит/(Пиксели*Кадры) : 0.164
Размер потока : 84,1 Мбайт (79%)
Библиотека кодирования : x264 core 58 svn-736
Настройки программы : cabac=1 / ref=2 / deblock=1:-2:-1 / analyse=0x1:0x131 / me=umh / subme=7 / brdo=1 / mixed_ref=1 / me_range=16 / chroma_me=1 / trellis=2 / 8x8dct=0 / cqm=0 / deadzone=21,11 / chroma_qp_offset=0 / threads=2 / nr=0 / decimate=0 / mbaff=0 / bframes=3 / b_pyramid=0 / b_adapt=1 / b_bias=0 / direct=3 / wpredb=1 / bime=1 / keyint=250 / keyint_min=25 / scenecut=40(pre) / rc=2pass / bitrate=512 / ratetol=1.0 / rceq='blurCplx^(1-qComp)' / qcomp=0.60 / qpmin=10 / qpmax=51 / qpstep=4 / cplxblur=20.0 / qblur=0.5 / ip_ratio=1.40 / pb_ratio=1.30
Дата кодирования : UTC 2008-12-04 11:34:38
Дата пометки : UTC 2008-12-04 11:34:45

Аудио
Идентификатор : 2
Формат : AAC
Формат/Информация : Advanced Audio Codec
Профиль формата : LC
Идентификатор кодека : mp4a-40-2
Продолжительность : 22 м. 56 с.
Вид битрейта : Переменный
Битрейт : 129 Кбит/сек
Максимальный битрейт : 170 Кбит/сек
Каналы : 2 канала
Расположение каналов : Front: L R
Частота : 48,0 КГц
Частота кадров : 46,875 кадров/сек (1024 SPF)
Метод сжатия : С потерями
Размер потока : 21,2 Мбайт (20%)
Дата кодирования : UTC 2008-12-04 11:34:44
Дата пометки : UTC 2008-12-04 11:34:45
Общее
Полное имя : C:\torrents\[ANIME4PSP] Vandread 1st Stage\04. I Want to Know More About You.mp4
Формат : MPEG-4
Профиль формата : Base Media
Идентификатор кодека : isom (isom/avc1)
Размер файла : 106 Мбайт
Продолжительность : 22 м. 56 с.
Режим общего битрейта : Переменный
Общий поток : 645 Кбит/сек
Дата кодирования : UTC 2008-12-04 11:01:03
Дата пометки : UTC 2008-12-04 11:01:03

Видео
Идентификатор : 1
Формат : AVC
Формат/Информация : Advanced Video Codec
Профиль формата : [email protected]
Настройки формата : CABAC / 2 Ref Frames
Параметр CABAC формата : Да
Параметр RefFrames формата : 2 кадра
Идентификатор кодека : avc1
Идентификатор кодека/Информация : Advanced Video Coding
Продолжительность : 22 м. 56 с.
Битрейт : 512 Кбит/сек
Максимальный битрейт : 2414 Кбит/сек
Ширина : 480 пикселей
Высота : 272 пикселя
Соотношение сторон : 16:9
Режим частоты кадров : Постоянный
Частота кадров : 23,976 (24000/1001) кадра/сек
Цветовое пространство : YUV
Субдискретизация насыщенности : 4:2:0
Битовая глубина : 8 бит
Тип развёртки : Прогрессивная
Бит/(Пиксели*Кадры) : 0.164
Размер потока : 84,1 Мбайт (79%)
Библиотека кодирования : x264 core 58 svn-736
Настройки программы : cabac=1 / ref=2 / deblock=1:-2:-1 / analyse=0x1:0x131 / me=umh / subme=7 / brdo=1 / mixed_ref=1 / me_range=16 / chroma_me=1 / trellis=2 / 8x8dct=0 / cqm=0 / deadzone=21,11 / chroma_qp_offset=0 / threads=2 / nr=0 / decimate=0 / mbaff=0 / bframes=3 / b_pyramid=0 / b_adapt=1 / b_bias=0 / direct=3 / wpredb=1 / bime=1 / keyint=250 / keyint_min=25 / scenecut=40(pre) / rc=2pass / bitrate=512 / ratetol=1.0 / rceq='blurCplx^(1-qComp)' / qcomp=0.60 / qpmin=10 / qpmax=51 / qpstep=4 / cplxblur=20.0 / qblur=0.5 / ip_ratio=1.40 / pb_ratio=1.30
Дата кодирования : UTC 2008-12-04 11:01:03
Дата пометки : UTC 2008-12-04 11:01:14

Аудио
Идентификатор : 2
Формат : AAC
Формат/Информация : Advanced Audio Codec
Профиль формата : LC
Идентификатор кодека : mp4a-40-2
Продолжительность : 22 м. 56 с.
Вид битрейта : Переменный
Битрейт : 129 Кбит/сек
Максимальный битрейт : 157 Кбит/сек
Каналы : 2 канала
Расположение каналов : Front: L R
Частота : 48,0 КГц
Частота кадров : 46,875 кадров/сек (1024 SPF)
Метод сжатия : С потерями
Размер потока : 21,2 Мбайт (20%)
Дата кодирования : UTC 2008-12-04 11:01:13
Дата пометки : UTC 2008-12-04 11:01:14
Общее
Полное имя : C:\torrents\[ANIME4PSP] Vandread 1st Stage\05. Sweet Temptation.mp4
Формат : MPEG-4
Профиль формата : Base Media
Идентификатор кодека : isom (isom/avc1)
Размер файла : 106 Мбайт
Продолжительность : 22 м. 56 с.
Режим общего битрейта : Переменный
Общий поток : 644 Кбит/сек
Дата кодирования : UTC 2008-12-04 10:27:37
Дата пометки : UTC 2008-12-04 10:27:37

Видео
Идентификатор : 1
Формат : AVC
Формат/Информация : Advanced Video Codec
Профиль формата : [email protected]
Настройки формата : CABAC / 2 Ref Frames
Параметр CABAC формата : Да
Параметр RefFrames формата : 2 кадра
Идентификатор кодека : avc1
Идентификатор кодека/Информация : Advanced Video Coding
Продолжительность : 22 м. 56 с.
Битрейт : 512 Кбит/сек
Максимальный битрейт : 2711 Кбит/сек
Ширина : 480 пикселей
Высота : 272 пикселя
Соотношение сторон : 16:9
Режим частоты кадров : Постоянный
Частота кадров : 23,976 (24000/1001) кадра/сек
Цветовое пространство : YUV
Субдискретизация насыщенности : 4:2:0
Битовая глубина : 8 бит
Тип развёртки : Прогрессивная
Бит/(Пиксели*Кадры) : 0.164
Размер потока : 84,1 Мбайт (79%)
Библиотека кодирования : x264 core 58 svn-736
Настройки программы : cabac=1 / ref=2 / deblock=1:-2:-1 / analyse=0x1:0x131 / me=umh / subme=7 / brdo=1 / mixed_ref=1 / me_range=16 / chroma_me=1 / trellis=2 / 8x8dct=0 / cqm=0 / deadzone=21,11 / chroma_qp_offset=0 / threads=2 / nr=0 / decimate=0 / mbaff=0 / bframes=3 / b_pyramid=0 / b_adapt=1 / b_bias=0 / direct=3 / wpredb=1 / bime=1 / keyint=250 / keyint_min=25 / scenecut=40(pre) / rc=2pass / bitrate=512 / ratetol=1.0 / rceq='blurCplx^(1-qComp)' / qcomp=0.60 / qpmin=10 / qpmax=51 / qpstep=4 / cplxblur=20.0 / qblur=0.5 / ip_ratio=1.40 / pb_ratio=1.30
Дата кодирования : UTC 2008-12-04 10:27:37
Дата пометки : UTC 2008-12-04 10:27:40

Аудио
Идентификатор : 2
Формат : AAC
Формат/Информация : Advanced Audio Codec
Профиль формата : LC
Идентификатор кодека : mp4a-40-2
Продолжительность : 22 м. 56 с.
Вид битрейта : Переменный
Битрейт : 129 Кбит/сек
Максимальный битрейт : 169 Кбит/сек
Каналы : 2 канала
Расположение каналов : Front: L R
Частота : 48,0 КГц
Частота кадров : 46,875 кадров/сек (1024 SPF)
Метод сжатия : С потерями
Размер потока : 21,2 Мбайт (20%)
Дата кодирования : UTC 2008-12-04 10:27:39
Дата пометки : UTC 2008-12-04 10:27:40
Общее
Полное имя : C:\torrents\[ANIME4PSP] Vandread 1st Stage\06. What a Wonderful World.mp4
Формат : MPEG-4
Профиль формата : Base Media
Идентификатор кодека : isom (isom/avc1)
Размер файла : 106 Мбайт
Продолжительность : 22 м. 56 с.
Режим общего битрейта : Переменный
Общий поток : 644 Кбит/сек
Дата кодирования : UTC 2008-12-03 14:25:39
Дата пометки : UTC 2008-12-03 14:25:39

Видео
Идентификатор : 1
Формат : AVC
Формат/Информация : Advanced Video Codec
Профиль формата : [email protected]
Настройки формата : CABAC / 2 Ref Frames
Параметр CABAC формата : Да
Параметр RefFrames формата : 2 кадра
Идентификатор кодека : avc1
Идентификатор кодека/Информация : Advanced Video Coding
Продолжительность : 22 м. 56 с.
Битрейт : 512 Кбит/сек
Максимальный битрейт : 2419 Кбит/сек
Ширина : 480 пикселей
Высота : 272 пикселя
Соотношение сторон : 16:9
Режим частоты кадров : Постоянный
Частота кадров : 23,976 (24000/1001) кадра/сек
Цветовое пространство : YUV
Субдискретизация насыщенности : 4:2:0
Битовая глубина : 8 бит
Тип развёртки : Прогрессивная
Бит/(Пиксели*Кадры) : 0.164
Размер потока : 84,1 Мбайт (79%)
Библиотека кодирования : x264 core 58 svn-736
Настройки программы : cabac=1 / ref=2 / deblock=1:-2:-1 / analyse=0x1:0x131 / me=umh / subme=7 / brdo=1 / mixed_ref=1 / me_range=16 / chroma_me=1 / trellis=2 / 8x8dct=0 / cqm=0 / deadzone=21,11 / chroma_qp_offset=0 / threads=2 / nr=0 / decimate=0 / mbaff=0 / bframes=3 / b_pyramid=0 / b_adapt=1 / b_bias=0 / direct=3 / wpredb=1 / bime=1 / keyint=250 / keyint_min=25 / scenecut=40(pre) / rc=2pass / bitrate=512 / ratetol=1.0 / rceq='blurCplx^(1-qComp)' / qcomp=0.60 / qpmin=10 / qpmax=51 / qpstep=4 / cplxblur=20.0 / qblur=0.5 / ip_ratio=1.40 / pb_ratio=1.30
Дата кодирования : UTC 2008-12-03 14:25:39
Дата пометки : UTC 2008-12-03 14:25:42

Аудио
Идентификатор : 2
Формат : AAC
Формат/Информация : Advanced Audio Codec
Профиль формата : LC
Идентификатор кодека : mp4a-40-2
Продолжительность : 22 м. 56 с.
Вид битрейта : Переменный
Битрейт : 129 Кбит/сек
Максимальный битрейт : 157 Кбит/сек
Каналы : 2 канала
Расположение каналов : Front: L R
Частота : 48,0 КГц
Частота кадров : 46,875 кадров/сек (1024 SPF)
Метод сжатия : С потерями
Размер потока : 21,2 Мбайт (20%)
Дата кодирования : UTC 2008-12-03 14:25:41
Дата пометки : UTC 2008-12-03 14:25:42
Общее
Полное имя : C:\torrents\[ANIME4PSP] Vandread 1st Stage\07. Easy Life.mp4
Формат : MPEG-4
Профиль формата : Base Media
Идентификатор кодека : isom (isom/avc1)
Размер файла : 106 Мбайт
Продолжительность : 22 м. 55 с.
Режим общего битрейта : Переменный
Общий поток : 645 Кбит/сек
Дата кодирования : UTC 2008-12-03 13:51:34
Дата пометки : UTC 2008-12-03 13:51:34

Видео
Идентификатор : 1
Формат : AVC
Формат/Информация : Advanced Video Codec
Профиль формата : [email protected]
Настройки формата : CABAC / 2 Ref Frames
Параметр CABAC формата : Да
Параметр RefFrames формата : 2 кадра
Идентификатор кодека : avc1
Идентификатор кодека/Информация : Advanced Video Coding
Продолжительность : 22 м. 55 с.
Битрейт : 512 Кбит/сек
Максимальный битрейт : 3114 Кбит/сек
Ширина : 480 пикселей
Высота : 272 пикселя
Соотношение сторон : 16:9
Режим частоты кадров : Постоянный
Частота кадров : 23,976 (24000/1001) кадра/сек
Цветовое пространство : YUV
Субдискретизация насыщенности : 4:2:0
Битовая глубина : 8 бит
Тип развёртки : Прогрессивная
Бит/(Пиксели*Кадры) : 0.164
Размер потока : 84,0 Мбайт (79%)
Библиотека кодирования : x264 core 58 svn-736
Настройки программы : cabac=1 / ref=2 / deblock=1:-2:-1 / analyse=0x1:0x131 / me=umh / subme=7 / brdo=1 / mixed_ref=1 / me_range=16 / chroma_me=1 / trellis=2 / 8x8dct=0 / cqm=0 / deadzone=21,11 / chroma_qp_offset=0 / threads=2 / nr=0 / decimate=0 / mbaff=0 / bframes=3 / b_pyramid=0 / b_adapt=1 / b_bias=0 / direct=3 / wpredb=1 / bime=1 / keyint=250 / keyint_min=25 / scenecut=40(pre) / rc=2pass / bitrate=512 / ratetol=1.0 / rceq='blurCplx^(1-qComp)' / qcomp=0.60 / qpmin=10 / qpmax=51 / qpstep=4 / cplxblur=20.0 / qblur=0.5 / ip_ratio=1.40 / pb_ratio=1.30
Дата кодирования : UTC 2008-12-03 13:51:34
Дата пометки : UTC 2008-12-03 13:51:38

Аудио
Идентификатор : 2
Формат : AAC
Формат/Информация : Advanced Audio Codec
Профиль формата : LC
Идентификатор кодека : mp4a-40-2
Продолжительность : 22 м. 55 с.
Вид битрейта : Переменный
Битрейт : 129 Кбит/сек
Максимальный битрейт : 141 Кбит/сек
Каналы : 2 канала
Расположение каналов : Front: L R
Частота : 48,0 КГц
Частота кадров : 46,875 кадров/сек (1024 SPF)
Метод сжатия : С потерями
Размер потока : 21,2 Мбайт (20%)
Дата кодирования : UTC 2008-12-03 13:51:38
Дата пометки : UTC 2008-12-03 13:51:38
Общее
Полное имя : C:\torrents\[ANIME4PSP] Vandread 1st Stage\08. Impossible!.mp4
Формат : MPEG-4
Профиль формата : Base Media
Идентификатор кодека : isom (isom/avc1)
Размер файла : 106 Мбайт
Продолжительность : 22 м. 56 с.
Режим общего битрейта : Переменный
Общий поток : 644 Кбит/сек
Дата кодирования : UTC 2008-12-04 09:54:40
Дата пометки : UTC 2008-12-04 09:54:40

Видео
Идентификатор : 1
Формат : AVC
Формат/Информация : Advanced Video Codec
Профиль формата : [email protected]
Настройки формата : CABAC / 2 Ref Frames
Параметр CABAC формата : Да
Параметр RefFrames формата : 2 кадра
Идентификатор кодека : avc1
Идентификатор кодека/Информация : Advanced Video Coding
Продолжительность : 22 м. 56 с.
Битрейт : 512 Кбит/сек
Максимальный битрейт : 2806 Кбит/сек
Ширина : 480 пикселей
Высота : 272 пикселя
Соотношение сторон : 16:9
Режим частоты кадров : Постоянный
Частота кадров : 23,976 (24000/1001) кадра/сек
Цветовое пространство : YUV
Субдискретизация насыщенности : 4:2:0
Битовая глубина : 8 бит
Тип развёртки : Прогрессивная
Бит/(Пиксели*Кадры) : 0.164
Размер потока : 84,1 Мбайт (79%)
Библиотека кодирования : x264 core 58 svn-736
Настройки программы : cabac=1 / ref=2 / deblock=1:-2:-1 / analyse=0x1:0x131 / me=umh / subme=7 / brdo=1 / mixed_ref=1 / me_range=16 / chroma_me=1 / trellis=2 / 8x8dct=0 / cqm=0 / deadzone=21,11 / chroma_qp_offset=0 / threads=2 / nr=0 / decimate=0 / mbaff=0 / bframes=3 / b_pyramid=0 / b_adapt=1 / b_bias=0 / direct=3 / wpredb=1 / bime=1 / keyint=250 / keyint_min=25 / scenecut=40(pre) / rc=2pass / bitrate=512 / ratetol=1.0 / rceq='blurCplx^(1-qComp)' / qcomp=0.60 / qpmin=10 / qpmax=51 / qpstep=4 / cplxblur=20.0 / qblur=0.5 / ip_ratio=1.40 / pb_ratio=1.30
Дата кодирования : UTC 2008-12-04 09:54:40
Дата пометки : UTC 2008-12-04 09:54:47

Аудио
Идентификатор : 2
Формат : AAC
Формат/Информация : Advanced Audio Codec
Профиль формата : LC
Идентификатор кодека : mp4a-40-2
Продолжительность : 22 м. 56 с.
Вид битрейта : Переменный
Битрейт : 129 Кбит/сек
Максимальный битрейт : 160 Кбит/сек
Каналы : 2 канала
Расположение каналов : Front: L R
Частота : 48,0 КГц
Частота кадров : 46,875 кадров/сек (1024 SPF)
Метод сжатия : С потерями
Размер потока : 21,2 Мбайт (20%)
Дата кодирования : UTC 2008-12-04 09:54:47
Дата пометки : UTC 2008-12-04 09:54:47
Общее
Полное имя : C:\torrents\[ANIME4PSP] Vandread 1st Stage\09. More Barbaric Than Heaven.mp4
Формат : MPEG-4
Профиль формата : Base Media
Идентификатор кодека : isom (isom/avc1)
Размер файла : 106 Мбайт
Продолжительность : 22 м. 56 с.
Режим общего битрейта : Переменный
Общий поток : 644 Кбит/сек
Дата кодирования : UTC 2008-12-04 09:22:07
Дата пометки : UTC 2008-12-04 09:22:07

Видео
Идентификатор : 1
Формат : AVC
Формат/Информация : Advanced Video Codec
Профиль формата : [email protected]
Настройки формата : CABAC / 2 Ref Frames
Параметр CABAC формата : Да
Параметр RefFrames формата : 2 кадра
Идентификатор кодека : avc1
Идентификатор кодека/Информация : Advanced Video Coding
Продолжительность : 22 м. 56 с.
Битрейт : 512 Кбит/сек
Максимальный битрейт : 2404 Кбит/сек
Ширина : 480 пикселей
Высота : 272 пикселя
Соотношение сторон : 16:9
Режим частоты кадров : Постоянный
Частота кадров : 23,976 (24000/1001) кадра/сек
Цветовое пространство : YUV
Субдискретизация насыщенности : 4:2:0
Битовая глубина : 8 бит
Тип развёртки : Прогрессивная
Бит/(Пиксели*Кадры) : 0.164
Размер потока : 84,1 Мбайт (79%)
Библиотека кодирования : x264 core 58 svn-736
Настройки программы : cabac=1 / ref=2 / deblock=1:-2:-1 / analyse=0x1:0x131 / me=umh / subme=7 / brdo=1 / mixed_ref=1 / me_range=16 / chroma_me=1 / trellis=2 / 8x8dct=0 / cqm=0 / deadzone=21,11 / chroma_qp_offset=0 / threads=2 / nr=0 / decimate=0 / mbaff=0 / bframes=3 / b_pyramid=0 / b_adapt=1 / b_bias=0 / direct=3 / wpredb=1 / bime=1 / keyint=250 / keyint_min=25 / scenecut=40(pre) / rc=2pass / bitrate=512 / ratetol=1.0 / rceq='blurCplx^(1-qComp)' / qcomp=0.60 / qpmin=10 / qpmax=51 / qpstep=4 / cplxblur=20.0 / qblur=0.5 / ip_ratio=1.40 / pb_ratio=1.30
Дата кодирования : UTC 2008-12-04 09:22:07
Дата пометки : UTC 2008-12-04 09:22:13

Аудио
Идентификатор : 2
Формат : AAC
Формат/Информация : Advanced Audio Codec
Профиль формата : LC
Идентификатор кодека : mp4a-40-2
Продолжительность : 22 м. 56 с.
Вид битрейта : Переменный
Битрейт : 129 Кбит/сек
Максимальный битрейт : 169 Кбит/сек
Каналы : 2 канала
Расположение каналов : Front: L R
Частота : 48,0 КГц
Частота кадров : 46,875 кадров/сек (1024 SPF)
Метод сжатия : С потерями
Размер потока : 21,2 Мбайт (20%)
Дата кодирования : UTC 2008-12-04 09:22:11
Дата пометки : UTC 2008-12-04 09:22:13
Общее
Полное имя : C:\torrents\[ANIME4PSP] Vandread 1st Stage\10. White Love.mp4
Формат : MPEG-4
Профиль формата : Base Media
Идентификатор кодека : isom (isom/avc1)
Размер файла : 106 Мбайт
Продолжительность : 22 м. 56 с.
Режим общего битрейта : Переменный
Общий поток : 644 Кбит/сек
Дата кодирования : UTC 2008-11-30 14:40:06
Дата пометки : UTC 2008-11-30 14:40:06

Видео
Идентификатор : 1
Формат : AVC
Формат/Информация : Advanced Video Codec
Профиль формата : [email protected]
Настройки формата : CABAC / 2 Ref Frames
Параметр CABAC формата : Да
Параметр RefFrames формата : 2 кадра
Идентификатор кодека : avc1
Идентификатор кодека/Информация : Advanced Video Coding
Продолжительность : 22 м. 56 с.
Битрейт : 512 Кбит/сек
Максимальный битрейт : 2425 Кбит/сек
Ширина : 480 пикселей
Высота : 272 пикселя
Соотношение сторон : 16:9
Режим частоты кадров : Постоянный
Частота кадров : 23,976 (24000/1001) кадра/сек
Цветовое пространство : YUV
Субдискретизация насыщенности : 4:2:0
Битовая глубина : 8 бит
Тип развёртки : Прогрессивная
Бит/(Пиксели*Кадры) : 0.164
Размер потока : 84,0 Мбайт (79%)
Библиотека кодирования : x264 core 58 svn-736
Настройки программы : cabac=1 / ref=2 / deblock=1:-2:-1 / analyse=0x1:0x131 / me=umh / subme=7 / brdo=1 / mixed_ref=1 / me_range=16 / chroma_me=1 / trellis=2 / 8x8dct=0 / cqm=0 / deadzone=21,11 / chroma_qp_offset=0 / threads=2 / nr=0 / decimate=0 / mbaff=0 / bframes=3 / b_pyramid=0 / b_adapt=1 / b_bias=0 / direct=3 / wpredb=1 / bime=1 / keyint=250 / keyint_min=25 / scenecut=40(pre) / rc=2pass / bitrate=512 / ratetol=1.0 / rceq='blurCplx^(1-qComp)' / qcomp=0.60 / qpmin=10 / qpmax=51 / qpstep=4 / cplxblur=20.0 / qblur=0.5 / ip_ratio=1.40 / pb_ratio=1.30
Дата кодирования : UTC 2008-11-30 14:40:06
Дата пометки : UTC 2008-11-30 14:40:11

Аудио
Идентификатор : 2
Формат : AAC
Формат/Информация : Advanced Audio Codec
Профиль формата : LC
Идентификатор кодека : mp4a-40-2
Продолжительность : 22 м. 56 с.
Вид битрейта : Переменный
Битрейт : 129 Кбит/сек
Максимальный битрейт : 168 Кбит/сек
Каналы : 2 канала
Расположение каналов : Front: L R
Частота : 48,0 КГц
Частота кадров : 46,875 кадров/сек (1024 SPF)
Метод сжатия : С потерями
Размер потока : 21,2 Мбайт (20%)
Дата кодирования : UTC 2008-11-30 14:40:11
Дата пометки : UTC 2008-11-30 14:40:11
Общее
Полное имя : C:\torrents\[ANIME4PSP] Vandread 1st Stage\11. Together.mp4
Формат : MPEG-4
Профиль формата : Base Media
Идентификатор кодека : isom (isom/avc1)
Размер файла : 106 Мбайт
Продолжительность : 22 м. 56 с.
Режим общего битрейта : Переменный
Общий поток : 644 Кбит/сек
Дата кодирования : UTC 2008-12-03 12:12:23
Дата пометки : UTC 2008-12-03 12:12:23

Видео
Идентификатор : 1
Формат : AVC
Формат/Информация : Advanced Video Codec
Профиль формата : [email protected]
Настройки формата : CABAC / 2 Ref Frames
Параметр CABAC формата : Да
Параметр RefFrames формата : 2 кадра
Идентификатор кодека : avc1
Идентификатор кодека/Информация : Advanced Video Coding
Продолжительность : 22 м. 56 с.
Битрейт : 512 Кбит/сек
Максимальный битрейт : 2741 Кбит/сек
Ширина : 480 пикселей
Высота : 272 пикселя
Соотношение сторон : 16:9
Режим частоты кадров : Постоянный
Частота кадров : 23,976 (24000/1001) кадра/сек
Цветовое пространство : YUV
Субдискретизация насыщенности : 4:2:0
Битовая глубина : 8 бит
Тип развёртки : Прогрессивная
Бит/(Пиксели*Кадры) : 0.164
Размер потока : 84,1 Мбайт (79%)
Библиотека кодирования : x264 core 58 svn-736
Настройки программы : cabac=1 / ref=2 / deblock=1:-2:-1 / analyse=0x1:0x131 / me=umh / subme=7 / brdo=1 / mixed_ref=1 / me_range=16 / chroma_me=1 / trellis=2 / 8x8dct=0 / cqm=0 / deadzone=21,11 / chroma_qp_offset=0 / threads=2 / nr=0 / decimate=0 / mbaff=0 / bframes=3 / b_pyramid=0 / b_adapt=1 / b_bias=0 / direct=3 / wpredb=1 / bime=1 / keyint=250 / keyint_min=25 / scenecut=40(pre) / rc=2pass / bitrate=512 / ratetol=1.0 / rceq='blurCplx^(1-qComp)' / qcomp=0.60 / qpmin=10 / qpmax=51 / qpstep=4 / cplxblur=20.0 / qblur=0.5 / ip_ratio=1.40 / pb_ratio=1.30
Дата кодирования : UTC 2008-12-03 12:12:23
Дата пометки : UTC 2008-12-03 12:12:28

Аудио
Идентификатор : 2
Формат : AAC
Формат/Информация : Advanced Audio Codec
Профиль формата : LC
Идентификатор кодека : mp4a-40-2
Продолжительность : 22 м. 56 с.
Вид битрейта : Переменный
Битрейт : 129 Кбит/сек
Максимальный битрейт : 184 Кбит/сек
Каналы : 2 канала
Расположение каналов : Front: L R
Частота : 48,0 КГц
Частота кадров : 46,875 кадров/сек (1024 SPF)
Метод сжатия : С потерями
Размер потока : 21,1 Мбайт (20%)
Дата кодирования : UTC 2008-12-03 12:12:27
Дата пометки : UTC 2008-12-03 12:12:28
Общее
Полное имя : C:\torrents\[ANIME4PSP] Vandread 1st Stage\12. They Don't Care About Us.mp4
Формат : MPEG-4
Профиль формата : Base Media
Идентификатор кодека : isom (isom/avc1)
Размер файла : 106 Мбайт
Продолжительность : 22 м. 56 с.
Режим общего битрейта : Переменный
Общий поток : 644 Кбит/сек
Дата кодирования : UTC 2008-12-03 11:39:47
Дата пометки : UTC 2008-12-03 11:39:47

Видео
Идентификатор : 1
Формат : AVC
Формат/Информация : Advanced Video Codec
Профиль формата : [email protected]
Настройки формата : CABAC / 2 Ref Frames
Параметр CABAC формата : Да
Параметр RefFrames формата : 2 кадра
Идентификатор кодека : avc1
Идентификатор кодека/Информация : Advanced Video Coding
Продолжительность : 22 м. 56 с.
Битрейт : 512 Кбит/сек
Максимальный битрейт : 2598 Кбит/сек
Ширина : 480 пикселей
Высота : 272 пикселя
Соотношение сторон : 16:9
Режим частоты кадров : Постоянный
Частота кадров : 23,976 (24000/1001) кадра/сек
Цветовое пространство : YUV
Субдискретизация насыщенности : 4:2:0
Битовая глубина : 8 бит
Тип развёртки : Прогрессивная
Бит/(Пиксели*Кадры) : 0.164
Размер потока : 84,1 Мбайт (79%)
Библиотека кодирования : x264 core 58 svn-736
Настройки программы : cabac=1 / ref=2 / deblock=1:-2:-1 / analyse=0x1:0x131 / me=umh / subme=7 / brdo=1 / mixed_ref=1 / me_range=16 / chroma_me=1 / trellis=2 / 8x8dct=0 / cqm=0 / deadzone=21,11 / chroma_qp_offset=0 / threads=2 / nr=0 / decimate=0 / mbaff=0 / bframes=3 / b_pyramid=0 / b_adapt=1 / b_bias=0 / direct=3 / wpredb=1 / bime=1 / keyint=250 / keyint_min=25 / scenecut=40(pre) / rc=2pass / bitrate=512 / ratetol=1.0 / rceq='blurCplx^(1-qComp)' / qcomp=0.60 / qpmin=10 / qpmax=51 / qpstep=4 / cplxblur=20.0 / qblur=0.5 / ip_ratio=1.40 / pb_ratio=1.30
Дата кодирования : UTC 2008-12-03 11:39:47
Дата пометки : UTC 2008-12-03 11:39:49

Аудио
Идентификатор : 2
Формат : AAC
Формат/Информация : Advanced Audio Codec
Профиль формата : LC
Идентификатор кодека : mp4a-40-2
Продолжительность : 22 м. 56 с.
Вид битрейта : Переменный
Битрейт : 129 Кбит/сек
Максимальный битрейт : 175 Кбит/сек
Каналы : 2 канала
Расположение каналов : Front: L R
Частота : 48,0 КГц
Частота кадров : 46,875 кадров/сек (1024 SPF)
Метод сжатия : С потерями
Размер потока : 21,1 Мбайт (20%)
Дата кодирования : UTC 2008-12-03 11:39:49
Дата пометки : UTC 2008-12-03 11:39:49
Общее
Полное имя : C:\torrents\[ANIME4PSP] Vandread 1st Stage\13. To Feel the Fire.mp4
Формат : MPEG-4
Профиль формата : Base Media
Идентификатор кодека : isom (isom/avc1)
Размер файла : 106 Мбайт
Продолжительность : 22 м. 56 с.
Режим общего битрейта : Переменный
Общий поток : 644 Кбит/сек
Дата кодирования : UTC 2008-12-03 11:07:54
Дата пометки : UTC 2008-12-03 11:07:54

Видео
Идентификатор : 1
Формат : AVC
Формат/Информация : Advanced Video Codec
Профиль формата : [email protected]
Настройки формата : CABAC / 2 Ref Frames
Параметр CABAC формата : Да
Параметр RefFrames формата : 2 кадра
Идентификатор кодека : avc1
Идентификатор кодека/Информация : Advanced Video Coding
Продолжительность : 22 м. 56 с.
Битрейт : 512 Кбит/сек
Максимальный битрейт : 2196 Кбит/сек
Ширина : 480 пикселей
Высота : 272 пикселя
Соотношение сторон : 16:9
Режим частоты кадров : Постоянный
Частота кадров : 23,976 (24000/1001) кадра/сек
Цветовое пространство : YUV
Субдискретизация насыщенности : 4:2:0
Битовая глубина : 8 бит
Тип развёртки : Прогрессивная
Бит/(Пиксели*Кадры) : 0.164
Размер потока : 84,0 Мбайт (79%)
Библиотека кодирования : x264 core 58 svn-736
Настройки программы : cabac=1 / ref=2 / deblock=1:-2:-1 / analyse=0x1:0x131 / me=umh / subme=7 / brdo=1 / mixed_ref=1 / me_range=16 / chroma_me=1 / trellis=2 / 8x8dct=0 / cqm=0 / deadzone=21,11 / chroma_qp_offset=0 / threads=2 / nr=0 / decimate=0 / mbaff=0 / bframes=3 / b_pyramid=0 / b_adapt=1 / b_bias=0 / direct=3 / wpredb=1 / bime=1 / keyint=250 / keyint_min=25 / scenecut=40(pre) / rc=2pass / bitrate=512 / ratetol=1.0 / rceq='blurCplx^(1-qComp)' / qcomp=0.60 / qpmin=10 / qpmax=51 / qpstep=4 / cplxblur=20.0 / qblur=0.5 / ip_ratio=1.40 / pb_ratio=1.30
Дата кодирования : UTC 2008-12-03 11:07:54
Дата пометки : UTC 2008-12-03 11:07:57

Аудио
Идентификатор : 2
Формат : AAC
Формат/Информация : Advanced Audio Codec
Профиль формата : LC
Идентификатор кодека : mp4a-40-2
Продолжительность : 22 м. 55 с.
Вид битрейта : Переменный
Битрейт : 129 Кбит/сек
Максимальный битрейт : 168 Кбит/сек
Каналы : 2 канала
Расположение каналов : Front: L R
Частота : 48,0 КГц
Частота кадров : 46,875 кадров/сек (1024 SPF)
Метод сжатия : С потерями
Размер потока : 21,1 Мбайт (20%)
Дата кодирования : UTC 2008-12-03 11:07:56
Дата пометки : UTC 2008-12-03 11:07:57


Трекер:  [ 02-Июн-2018 21:06 ]

  

Скачать .torrent

Размер .torrent файла 15 KB


Размер: 1.35 GB
Хэш (hash) релиза: 2285d14d56f5f3657a9f8eeded5fc5d87659ce7c
Подписка на обновления:

Еще никто не оставлял запись к записи скачать торрент [ANIME4PSP] Вандред Vandread 1st Stage . Будь первым!

!Обратная связь