Gossip Girl | Ready Player One | Zootopia

Скачать через торрент Северное сияние Серии: 1-2 из 2 Фильм бесплатно в хорошем качестве torrent

Скачивайте на UnionPeer.org фильмы через торрент без регистрации. Новинки кино в хорошем качестве через торрент. На UnionPeer.org можно скачать через торрент фильмы 2014 и 2015 годов. Самые новые фильмы.

Скачать торрент Северное сияние Серии: 1-2 из 2 бесплатно через .torrent фильм мультфильм сериал

Статистика раздачи
Размер:  1.11 GB   |    Зарегистрирован:  3 месяца 16 дней   |    .torrent скачан:  56 раз   |   
Раздают:  1  
   
загрузка...
 
Автор Сообщение

Galfimbul

avatar Galfimbul


Северное сияние

Год выпуска: 2018
Производство: Марс Медиа Энтертейнмен
Жанр: детектив, мистика
Продолжительность: ~00:45:00 серия
Субтитры: нет

Режиссёр: Дарья Семенова

В ролях: Ирина Горячева, Анна Дулова, Игорь Головин, Константин Шелестун, Наталия Варфоломеева, Пётр Харченко, Галина Бокашевская, Никита Плащевский, Александра Большакова, Владимир Котов, Хельга Филиппова

Описание: Автор детективов Агата Север, переживающая творческий кризис, отправляется вместе со своей помощницей Марусей на маленький остров в Ладожском озере. Едва ступив на берег, женщины оказываются свидетелями ЧП и становятся спасителями молодой девушки, чудом оставшейся живой после падения с обрыва. Однако Агата не верит в несчастный случай и довольно быстро узнаёт, кто же является злоумышленником. Очень скоро подозреваемого убивают. Теперь женщинам предстоит найти убийцу, которому из-за начавшегося шторма не удаётся покинуть остров. Анализируя происходящие события, Агата вдруг узнаёт места из своих детских снов. Женщина неожиданно понимает, что мучавшие её кошмары – не сны, а воспоминания о событиях на этом острове, свидетелем которых она стала много лет назад…

Реклама: Нет.



Sample

Качество: WEBRip
Формат: AVI
Видео кодек: XviD
Аудио кодек: AC3
Видео: 720x400 (1.80:1), 25 fps, XviD build 73 ~1580 kbps avg, 0.219 bit/pixel
Аудио: 48.0 kHz, AC3 Dolby Digital, 2/0 (L,R) ch, ~ 192 kbps
General
Complete name : D:\Северное сияние 2018 WEBRip\Северное сияние. 1 серия.avi
Format : AVI
Format/Info : Audio Video Interleave
File size : 567 MiB
Duration : 44 min 32 s
Overall bit rate : 1 779 kb/s
Writing application : VirtualDubMod 1.5.10.3 | www.virtualdub-fr.org || (build 2550/release)
Writing library : VirtualDubMod build 2550/release

Video
ID : 0
Format : MPEG-4 Visual
Format profile : Advanced [email protected]
Format settings : BVOP1
Format settings, BVOP : 1
Format settings, QPel : No
Format settings, GMC : No warppoints
Format settings, Matrix : Default (H.263)
Codec ID : XVID
Codec ID/Hint : XviD
Duration : 44 min 32 s
Bit rate : 1 578 kb/s
Width : 720 pixels
Height : 400 pixels
Display aspect ratio : 16:9
Frame rate : 25.000 FPS
Color space : YUV
Chroma subsampling : 4:2:0
Bit depth : 8 bits
Scan type : Progressive
Compression mode : Lossy
Bits/(Pixel*Frame) : 0.219
Stream size : 503 MiB (89%)
Writing library : XviD 73

Audio
ID : 1
Format : AC-3
Format/Info : Audio Coding 3
Codec ID : 2000
Duration : 44 min 32 s
Bit rate mode : Constant
Bit rate : 192 kb/s
Channel(s) : 2 channels
Channel positions : Front: L R
Sampling rate : 48.0 kHz
Frame rate : 31.250 FPS (1536 SPF)
Bit depth : 16 bits
Compression mode : Lossy
Stream size : 61.2 MiB (11%)
Alignment : Split accross interleaves
Interleave, duration : 40 ms (1.00 video frame)
Interleave, preload duratio : 500 ms
Service kind : Complete Main


Трекер:  [ 02-Июн-2018 20:42 ]

  

Скачать .torrent

Размер .torrent файла 11 KB


Размер: 1.11 GB
Хэш (hash) релиза: 786990576ea64f55a3088d303cc5b4948cc4d1a8
Подписка на обновления:

Торренты, похожие на Северное сияние Серии: 1-2 из 2 скачать торрент

Форум Название Автор Размер S L Добавлен
Российские сериалы ·· Северное сияние / Серии: 1-2 из 2 (Дарья Семенова) [2018, детектив, мистика, WEB-DLRip-AVC] Galfimbul 15667008771.46 GB 0 0 1528047737

20:42

3-Июн-18

Российские сериалы ·· Северное сияние / Серии: 1-2 из 2 (Дарья Семенова) [2018, детектив, мистика, WEBRip 1080p] Galfimbul 36060095133.36 GB 0 0 1527959550

20:12

2-Июн-18

Российские сериалы ·· Северное сияние / Серии: 1-2 из 2 ( Дарья Семенова) [2018,детектив, мистика, SATRip-AVC] aleksan55 12008261881.12 GB 0 0 1527864842

17:54

1-Июн-18

Еще никто не оставлял запись к записи скачать торрент Северное сияние Серии: 1-2 из 2 . Будь первым!

!Обратная связь