Animation | Lubomír Bukový | Autorensysteme

Скачать через торрент Обман Серии: 1-12 из 12 Фильм бесплатно в хорошем качестве torrent

Скачивайте на UnionPeer.org фильмы через торрент без регистрации. Новинки кино в хорошем качестве через торрент. На UnionPeer.org можно скачать через торрент фильмы 2014 и 2015 годов. Самые новые фильмы.

Скачать торрент Обман Серии: 1-12 из 12 бесплатно через .torrent фильм мультфильм сериал

Статистика раздачи
Размер:  15.48 GB   |    Зарегистрирован:  18 дней   |    .torrent скачан:  45 раз   |   
Раздают:  1  
   
загрузка...
 
Автор Сообщение

Galfimbul

avatar Galfimbul


Обман

Год выпуска: 2018
Производство: Film.uа и Pronto Film
Жанр: мелодрама
Продолжительность: ~00:45:00 серия
Субтитры: нет

Режиссёр: Анна Гресь

В ролях: Анастасия Панина, Дмитрий Белякин, Виктория Клинкова, Кирилл Жандаров, Артур Ваха, Алла Масленникова, Инна Мирошниченко, Даниил Мирешкин, Олег Москаленко, Виталий Салий

Описание: Антон привык подчиняться родителям, но в какой-то момент понимает, что живёт по чужому сценарию, и все, что у него есть — это ненавистная работа и нелюбимая жена. Он решает круто изменить свою жизнь, звонит своей первой любви Ольге, живущей в маленьком городе, и признается в том, что чувства его не остыли. Ольга счастлива, ведь и для неё это шанс начать новую жизнь.
Но оказывается, что одной любви недостаточно, чтобы быть вместе. На их пути встает сестра Ольги — Олеся, партнер Антона — Максим, одержимый идеей отыскать виновницу смерти своего брата, а еще тот, кто двенадцать лет назад «срежиссировал» расставание влюбленных.

Реклама: Нет.

Кинопоиск
Все раздачи сериала
Sample

Качество: HDTVRip 720p - Nikolspup
Формат: MKV
Видео кодек: H.264
Аудио кодек: AC3
Видео: MPEG4 AVC Video, H264, 16:9, 1280x720, 25 fps, ~4000 kbps, 0.174 bit/pixel
Аудио: AC3 Dolby Digital, 48 kHz, 2/0 (L,R) ch, 192 kbp
General
Unique ID : 205859423697789968606185902222229600645 (0x9ADF153539672AEF81B8BD30B7AB7985)
Complete name : D:\Obman.2018.HDTVRip.(720p).Nikolspup\Obman.(01-03.seriya).2018.HDTVRip.(720p).Nikolspup.mkv
Format : Matroska
Format version : Version 4 / Version 2
File size : 3.01 GiB
Duration : 1 h 42 min
Overall bit rate : 4 194 kb/s
Encoded date : UTC 2018-06-01 23:54:19
Writing application : mkvmerge v7.8.0 ('River Man') 32bit built on Mar 27 2015 16:18:02
Writing library : libebml v1.3.1 + libmatroska v1.4.2

Video
ID : 1
Format : AVC
Format/Info : Advanced Video Codec
Format profile : [email protected]
Format settings : CABAC / 9 Ref Frames
Format settings, CABAC : Yes
Format settings, ReFrames : 9 frames
Codec ID : V_MPEG4/ISO/AVC
Duration : 1 h 42 min
Bit rate : 4 000 kb/s
Width : 1 280 pixels
Height : 720 pixels
Display aspect ratio : 16:9
Frame rate mode : Constant
Frame rate : 25.000 FPS
Color space : YUV
Chroma subsampling : 4:2:0
Bit depth : 8 bits
Scan type : Progressive
Bits/(Pixel*Frame) : 0.174
Stream size : 2.87 GiB (95%)
Writing library : x264 core 146 r2538 121396c
Encoding settings : cabac=1 / ref=9 / deblock=1:-2:-1 / analyse=0x3:0x133 / me=umh / subme=9 / psy=1 / psy_rd=1.00:0.20 / mixed_ref=1 / me_range=32 / chroma_me=1 / trellis=2 / 8x8dct=1 / cqm=0 / deadzone=21,11 / fast_pskip=1 / chroma_qp_offset=-3 / threads=16 / lookahead_threads=8 / sliced_threads=0 / nr=0 / decimate=1 / interlaced=0 / bluray_compat=0 / constrained_intra=0 / bframes=11 / b_pyramid=2 / b_adapt=2 / b_bias=0 / direct=1 / weightb=1 / open_gop=0 / weightp=2 / keyint=250 / keyint_min=25 / scenecut=40 / intra_refresh=0 / rc=2pass / mbtree=0 / bitrate=4000 / ratetol=1.0 / qcomp=0.60 / qpmin=0 / qpmax=69 / qpstep=4 / cplxblur=20.0 / qblur=0.5 / ip_ratio=1.40 / pb_ratio=1.30 / aq=3:1.00
Default : No
Forced : No
Color range : Limited
Color primaries : BT.709
Transfer characteristics : BT.709
Matrix coefficients : BT.709

Audio
ID : 2
Format : AC-3
Format/Info : Audio Coding 3
Codec ID : A_AC3
Duration : 1 h 42 min
Bit rate mode : Constant
Bit rate : 192 kb/s
Channel(s) : 2 channels
Channel positions : Front: L R
Sampling rate : 48.0 kHz
Frame rate : 31.250 FPS (1536 SPF)
Bit depth : 16 bits
Compression mode : Lossy
Stream size : 141 MiB (5%)
Language : Russian
Service kind : Complete Main
Default : Yes
Forced : Yes


Трекер:  [ 02-Июн-2018 20:42 ]

  

Скачать .torrent

Размер .torrent файла 78 KB


Размер: 15.48 GB
Хэш (hash) релиза: 868b9c374292a10295cd703f5ea42032464f88f2
Подписка на обновления:

Торренты, похожие на Обман Серии: 1-12 из 12 скачать торрент

Форум Название Автор Размер S L Добавлен
Российские сериалы ·· Обман / Серии: 1-12 из 12 (Анна Гресь) [2018, мелодрама, WEBRip-AVC] Galfimbul 73213597696.82 GB 0 0 1527736339

06:12

31-Май-18

Российские сериалы ·· Обман / Серии: 1-3 из 12 (Анна Гресь) [2018, Мелодрама, WEBRip] Galfimbul 15704248321.46 GB 0 0 1527572537

08:42

29-Май-18

Еще никто не оставлял запись к записи скачать торрент Обман Серии: 1-12 из 12 . Будь первым!

!Обратная связь