telecharger The Strangers: Prey at Night film Torrent DVD | Episode n° 21 | Avant 2010

Скачать через торрент Северное сияние Серии: 1-2 из 2 Фильм бесплатно в хорошем качестве torrent

Скачивайте на UnionPeer.org фильмы через торрент без регистрации. Новинки кино в хорошем качестве через торрент. На UnionPeer.org можно скачать через торрент фильмы 2014 и 2015 годов. Самые новые фильмы.

Скачать торрент Северное сияние Серии: 1-2 из 2 бесплатно через .torrent фильм мультфильм сериал

Статистика раздачи
Размер:  3.36 GB   |    Зарегистрирован:  17 дней   |    .torrent скачан:  50 раз   |   
Раздают:  1  
   
загрузка...
 
Автор Сообщение

Galfimbul

avatar Galfimbul


Северное сияние

Год выпуска: 2018
Производство: Марс Медиа Энтертейнмен
Жанр: детектив, мистика
Продолжительность: ~00:45:00 серия
Субтитры: нет

Режиссёр: Дарья Семенова

В ролях: Ирина Горячева, Анна Дулова, Игорь Головин, Константин Шелестун, Наталия Варфоломеева, Пётр Харченко, Галина Бокашевская, Никита Плащевский, Александра Большакова, Владимир Котов, Хельга Филиппова

Описание: Автор детективов Агата Север, переживающая творческий кризис, отправляется вместе со своей помощницей Марусей на маленький остров в Ладожском озере. Едва ступив на берег, женщины оказываются свидетелями ЧП и становятся спасителями молодой девушки, чудом оставшейся живой после падения с обрыва. Однако Агата не верит в несчастный случай и довольно быстро узнаёт, кто же является злоумышленником. Очень скоро подозреваемого убивают. Теперь женщинам предстоит найти убийцу, которому из-за начавшегося шторма не удаётся покинуть остров. Анализируя происходящие события, Агата вдруг узнаёт места из своих детских снов. Женщина неожиданно понимает, что мучавшие её кошмары – не сны, а воспоминания о событиях на этом острове, свидетелем которых она стала много лет назад…

Реклама: Нет.



Sample

Качество: WEBRip 1080p - Getty
Формат: MKV
Видео кодек: H.264
Аудио кодек: AC3
Видео: MPEG4 AVC Video, H264, 16:9, 1920x1080, 25 fps, ~5100 kbps, 0.098 bit/pixel
Аудио: AC3 Dolby Digital, 48.0 kHz, 2/0 (L,R) ch, 192 kbps
General
Unique ID : 230122508802032038841990367262544325214 (0xAD1FFBA9AF505D5DB81041D514656A5E)
Complete name : D:\Severnoe.siyanie.2018.WEB-DL.(1080p).Getty\Severnoe.siyanie.e01.2018.WEB-DL.(1080p).Getty.mkv
Format : Matroska
Format version : Version 4 / Version 2
File size : 1.65 GiB
Duration : 44 min 32 s
Overall bit rate : 5 291 kb/s
Movie name : Severnoe.siyanie.e01.2018.WEB-DL.(1080p).Getty
Encoded date : UTC 2018-06-01 23:49:01
Writing application : mkvmerge v7.8.0 ('River Man') 32bit built on Mar 27 2015 16:18:02
Writing library : libebml v1.3.1 + libmatroska v1.4.2

Video
ID : 1
Format : AVC
Format/Info : Advanced Video Codec
Format profile : [email protected]
Format settings : CABAC / 4 Ref Frames
Format settings, CABAC : Yes
Format settings, ReFrames : 4 frames
Codec ID : V_MPEG4/ISO/AVC
Duration : 44 min 32 s
Bit rate : 5 097 kb/s
Width : 1 920 pixels
Height : 1 080 pixels
Display aspect ratio : 16:9
Frame rate mode : Constant
Frame rate : 25.000 FPS
Color space : YUV
Chroma subsampling : 4:2:0
Bit depth : 8 bits
Scan type : Progressive
Bits/(Pixel*Frame) : 0.098
Stream size : 1.59 GiB (96%)
Default : Yes
Forced : No

Audio
ID : 2
Format : AC-3
Format/Info : Audio Coding 3
Codec ID : A_AC3
Duration : 44 min 32 s
Bit rate mode : Constant
Bit rate : 192 kb/s
Channel(s) : 2 channels
Channel positions : Front: L R
Sampling rate : 48.0 kHz
Frame rate : 31.250 FPS (1536 SPF)
Bit depth : 16 bits
Compression mode : Lossy
Stream size : 61.2 MiB (4%)
Service kind : Complete Main
Default : Yes
Forced : No


Трекер:  [ 02-Июн-2018 20:12 ]

  

Скачать .torrent

Размер .torrent файла 17 KB


Размер: 3.36 GB
Хэш (hash) релиза: 7f2dcc15051967e149757deef3be64e98d17b457
Подписка на обновления:

Торренты, похожие на Северное сияние Серии: 1-2 из 2 скачать торрент

Форум Название Автор Размер S L Добавлен
Российские сериалы ·· Северное сияние / Серии: 1-2 из 2 (Дарья Семенова) [2018, детектив, мистика, WEB-DLRip-AVC] Galfimbul 15667008771.46 GB 0 0 1528047737

20:42

3-Июн-18

Российские сериалы ·· Северное сияние / Серии: 1-2 из 2 (Дарья Семенова) [2018, детектив, мистика, WEBRip] Galfimbul 11899985921.11 GB 0 0 1527961344

20:42

2-Июн-18

Российские сериалы ·· Северное сияние / Серии: 1-2 из 2 ( Дарья Семенова) [2018,детектив, мистика, SATRip-AVC] aleksan55 12008261881.12 GB 0 0 1527864842

17:54

1-Июн-18

Еще никто не оставлял запись к записи скачать торрент Северное сияние Серии: 1-2 из 2 . Будь первым!

!Обратная связь