J. Farrell MacDonald | Shuumatsu no Izetta | voir épisode 16

Скачать через торрент Кризис нежного возраста Серии: 1-8 из 8 Фильм бесплатно в хорошем качестве torrent

Скачивайте на UnionPeer.org фильмы через торрент без регистрации. Новинки кино в хорошем качестве через торрент. На UnionPeer.org можно скачать через торрент фильмы 2014 и 2015 годов. Самые новые фильмы.

Скачать торрент Кризис нежного возраста Серии: 1-8 из 8 бесплатно через .torrent фильм мультфильм сериал

Статистика раздачи
Размер:  4.53 GB   |    Зарегистрирован:  18 дней   |    .torrent скачан:  29 раз   |   
Раздают:  1  
   
загрузка...
 
Автор Сообщение

Galfimbul

avatar Galfimbul


Кризис нежного возраста

Год выпуска: 2016
Производство: Россия, Кинокомпания «Магнум», ТНТ
Жанр: Мелодрама, комедия
Продолжительность: 00:40:00
Субтитры: нет

Режиссер: Наталья Меркулова, Алексей Чупов

В ролях: Мария Поезжаева, Максим Виторган, Алиса Гребенщикова, Евгений Цыганов, Ксения Суркова, Кристина Исайкина, Екатерина Захарова, Александр Грашин, Руслан Ягудин, Никита Волков

Описание: Это история про трех лучших подруг: Шуру, Юлю и Аню. Им по 18 лет, все самое важное в жизни происходит у них в первый раз, и они подходят ко всему с юношеским рвением и максимализмом. Шура Ермакова влюбляется в преподавателя и в тот же день узнает, что в ее семью вернулась мама, которая бросила ее в детстве. Юля Кузьмина никак не может разорвать отношения со своим парнем-полицейским, который ей постоянно изменяет, а Аня Силкина, используя связи своего папы-продюсера, раз в неделю придумывает себе новую карьеру.

Релиз группа
<img class="smile" src="//static.t-ru.org/smiles/icon_arrow.gif" alt=""> Все раздачи сериала
<img class="smile" src="//static.t-ru.org/smiles/icon_arrow.gif" alt=""> Сэмпл

Качество: WEBRip
Формат: AVI
Видео кодек: XviD
Аудио кодек: AC3
Видео: 720x400 (1.80:1), 25 fps, XviD build 73 ~1675 kbps avg, 0.22 bit/pixel
Аудио: 48 kHz, AC3 Dolby Digital, 2/0 (L,R) ch, ~192.00 kbps avg
General
Complete name : X:\раздачи\Кризис нежного возраста.2016.WEB-DLRip.RG.Russkie.serialy.&.Files-x\01.Кризис нежного возраста.2016.WEB-DLRip.RG.Russkie.serialy.&.Files-x.avi
Format : AVI
Format/Info : Audio Video Interleave
File size : 533 MiB
Duration : 41mn 16s
Overall bit rate : 1 804 Kbps
Writing application : VirtualDubMod 1.5.10.3 (build 2550/release)
Writing library : VirtualDubMod build 2550/release

Video
ID : 0
Format : MPEG-4 Visual
Format profile : Advanced [email protected]
Format settings, BVOP : 1
Format settings, QPel : No
Format settings, GMC : No warppoints
Format settings, Matrix : Custom
Codec ID : XVID
Codec ID/Hint : XviD
Duration : 41mn 16s
Bit rate : 1 602 Kbps
Width : 720 pixels
Height : 400 pixels
Display aspect ratio : 16:9
Frame rate : 25.000 fps
Color space : YUV
Chroma subsampling : 4:2:0
Bit depth : 8 bits
Scan type : Progressive
Compression mode : Lossy
Bits/(Pixel*Frame) : 0.223
Stream size : 473 MiB (89%)
Writing library : XviD 73

Audio
ID : 1
Format : AC-3
Format/Info : Audio Coding 3
Mode extension : CM (complete main)
Format settings, Endianness : Big
Codec ID : 2000
Duration : 41mn 16s
Bit rate mode : Constant
Bit rate : 192 Kbps
Channel(s) : 2 channels
Channel positions : Front: L R
Sampling rate : 48.0 KHz
Frame rate : 31.250 fps (1536 spf)
Compression mode : Lossy
Stream size : 56.7 MiB (11%)
Alignment : Split accross interleaves
Interleave, duration : 40 ms (1.00 video frame)
Interleave, preload duratio : 500 ms
Внимание! Раздача ведётся путём добавления новых серий
Внимание! Раздача ведётся путём добавления новых серий; при каждом добавлении создётся новый торрент.
Чтобы начать докачку новой серии, пользователям необходимо сделать следующее:
1) остановить скачивание
2) удалить старый торрент у себя из клиента (старые серии удалять не надо)
3) скачать новый торрент и запустить его у себя в клиенте вместо старого, при этом указать клиенту путь в старую папку куда и должно происходить скачивание новых серий.
Ваш клиент при этом должен произвести хеширование (проверку) старой папки (если не производит сам - помогите ему сделать это), и будет докачивать только те серии которых у вас ещё нет. Старые серии при этом не удаляются, а продолжают раздаваться!
Eсли вы уже удалили старые серии, то предотвратить повторную закачку старых серий можно, отжав галочку в соответствовавших местах при запуске нового торрента.
adikal.ru/1608/4d/f2f563b5c23at.jpg[/IMG][/URL]


Трекер:  [ 02-Июн-2018 19:12 ]

  

Скачать .torrent

Размер .torrent файла 24 KB


Размер: 4.53 GB
Хэш (hash) релиза: 92db81c18bc0bd8b92adfe35ef9eef4c7585204b
Подписка на обновления:

Еще никто не оставлял запись к записи скачать торрент Кризис нежного возраста Серии: 1-8 из 8 . Будь первым!

!Обратная связь