Relax the Back | The Judges Do Battle | The Judges Do Battle, Pt. 2

Скачать через торрент Джуманджи Jumanji: The Animated Series Фильм бесплатно в хорошем качестве torrent

Скачивайте на UnionPeer.org фильмы через торрент без регистрации. Новинки кино в хорошем качестве через торрент. На UnionPeer.org можно скачать через торрент фильмы 2014 и 2015 годов. Самые новые фильмы.

Скачать торрент Джуманджи Jumanji: The Animated Series бесплатно через .torrent фильм мультфильм сериал

Статистика раздачи
Размер:  22.62 GB   |    Зарегистрирован:  20 дней   |    .torrent скачан:  18 раз   |   
Раздают:  1  
   
загрузка...
 
Автор Сообщение

Galfimbul

avatar Galfimbul



Джуманджи / Jumanji: The Animated Series
The Complete Series

Год выпуска: 1967-1970
Страна: США
Жанр: Экшен, приключения, триллер, фэнтези
Продолжительность: 22 мин.
Режиссёр: Боб Хэчкок, Стив Рессел / Bob Hathcock, Steve Ressel
Роли озвучивали:
Билл Фэйджербак
Дэби Дэррибэрри
Эшли Джонсон
Шерман Говард
Мелани Чартофф
Памела Эдлон
Ричард Аллен
Тим Карри
Уильям СандерсонОписание:
Джуди и ее брат Питер находят странную настольную игру "Джуманджи". Бросив кубики, они получают "подсказку" от игры и попадают в джунгли - огромный мир внутри игры. Из опасных джунглей можно выбраться только если решить загадку, которую задала игра. Во время своего путешествия Джуди и Питер встречают мужчину по имени Алан Пэрриш. Алан уже много лет пытается выбраться из мира игры, но безуспешно, так как в свое время не прочитал "подсказку". Питер и Джуди решают помочь Алану, но для этого им придется раз за разом попадать в мир Джуманджи.
• Помимо Питера и Джуди в Джуманджи побывали следующие персонажи: тетя Нора, одноклассники Питера Рок и Мария, вор Джек, старая леди Мисс Дезмина, врач, лечивший Питеру норвежскую лихорадку.
• Тетя Нора единственный персонаж, побывавший в Джуманджи дважды.
• Питер и Джуди дважды имели возможность узнать подсказку Алана, однако оба раза главным образом им помешал профессор Ибсон.
• Если не считать эпизода, когда шаровая молния поменяла всех телами, Джуди единственный раз на протяжении всего мультсериала попала под гнев Джуманджи - когда они с Питером попали в омут старения. Обычно Питер отдувался за всех один.
• Зафиксировано 3 случая, когда игра выдавала подсказку без броска костей, и все они связаны с тем, что над игрой совершалось насилие: когда Алан стащил кости, когда Питер в гневе швыряет игру об стену, за что та делит его натрое, и когда Джуди бросает игру на землю, борясь в это время с Питером, считающим себя Ван Пелтом.
• Нельзя так же было не обратить внимание на то, что Алан выполнил свою подсказку задолго до того, как попал в пещеру кристаллов - он делает добро Ван Пелту, спасая того из трясины, однако игра его не отпускает. Очевидно, разгадка была завязана именно на льве.
• Интересен так же и тот факт, что Джуди никогда не бросала костей Джуманджи без Питера. А вот он это делал целых два раза: когда он отправился в игру сам, где его потом заменил клон Ибсона, и когда он с помощью куклы Вуду замораживает Джуди и идет искать спасения в игру.
• Солнце в Джуманджи — ненастоящее. Племя небесных птиц — Джумаки поддерживают его свечение.
• Дом Ибсена разрушается почти в каждой серии с его участием.
• Примечательно, что за 23 года странствий по Джуманджи Алан так и не познакомился с Ибсеном, а сделал это только вместе с Питером и Джуди. Причём в первый день игры маленький Алан всё же познакомился с ним.
• В работе над мультсериалом принимала участие группа художников со студии Klasky Csupo, известной по проектам «Ох, уж эти детки!», «Настоящие монстры» и «Дакмен» (в частности, главным дизайнером по персонажам был автор «Дакмена» Эверетт Пек), поэтому визуальное решение «Джуманджи» близко к характерному стилю работ Klasky Csupo.
• Сара Уитл ни разу не появилась в мультсериале.
Аудиодорожка 01: MP3 | 48khz | 2ch | 192kb/s |Профессиональный (полное дублирование, Селена Интернешнл): | СТС | Серии 01-40
Аудиодорожка 02: AC3 | 48khz | 2ch | 192kb/s |Профессиональный (полное дублирование): | Премьер Видео-Фильм | Cерии 1-13
Аудиодорожка 03: AC3 | 48khz | 2ch | 192kb/s |Профессиональный (многоголосный, закадровый, студия НОТА ): | РТР | Cерии 3-13, 16, 19, 21, 23, 28, 30-38, 40
Разбивка на главы : есть
Субтитры : отсутствуют

Качество: DVD-Remux
Формат: MKV
Видео кодек: MPEG2
Аудио кодек: AC3
Видео: MPEG-2 Video | NTSC | 4:3 | 720x480 | 29.970 fps | ~3298/9800 Kbps/
1 Сезон
1. The Price
2. Bargaining for Time
3. Ransom of Redhead
4. Masked Identity
5. Master Builder
6. No Dice
7. Love on the Rocks
8. The Law of Jumanji
9. Stormy Weather
10. El Pollo Jumanji
11. Perfect Match
12. The Gift
13. Truth or Consequently
2 Сезон
1. The Red and the Black
2. Eye of the Sea
3. Brantford, the Game
4. Air Judy
5. The Palace of Clues
6. The Master of the Game
7. Robo-Peter
8. Mud Boy
9. The Magic Chest
10. The Trial
11. The Riddle of Alan
12. Night of the Hunters
13. The Plague
3 Сезон
1. The Three Peters
2. Young Alan
3. The Intruder
4. Oh, Grow Up
5. Return of Squint
6. Armageddon
7. Love Potion
8. Sorceress of Jumanji
9. The Ultimate Weapon
10. Who Am I?
11. Nothing to Fear
12. The Doll
13. An Old Story (a.k.a. Bark at Jumanji)
14. Good Bye, Jumanji
ОбщееУникальный идентификатор : 169628683718491768083703860367125974061 (0x7F9D4BCFD579D0200849F7C8B2710C2D)Полное имя : D:\Ремуксы\[AORE] Jumanji\Season 1\3. Masked Identity.mkvФормат : MatroskaВерсия формата : Version 4 / Version 2Размер файла : 635 МбайтПродолжительность : 21 м. 47 с.Режим общего битрейта : ПеременныйОбщий поток : 4073 Кбит/секДата кодирования : UTC 2018-05-26 18:03:34Программа кодирования : mkvmerge v23.0.0 ('The Bride Said No') 64-bitБиблиотека кодирования : libebml v1.3.6 + libmatroska v1.4.9

ВидеоИдентификатор : 5Формат : MPEG VideoВерсия формата : Version 2Профиль формата : [email protected]Настройки формата : CustomMatrix / BVOPПараметр BVOP формата : ДаПараметр матрицы формата : ВыборочнаяПараметр GOP формата : VariableСтруктура изображения : FrameИдентификатор кодека : V_MPEG2Идентификатор кодека/Информация : MPEG 1 or 2 VideoПродолжительность : 21 м. 47 с.Вид битрейта : ПеременныйБитрейт : 3300 Кбит/секМаксимальный битрейт : 9800 Кбит/секШирина : 720 пикселейВысота : 480 пикселейСоотношение сторон : 4:3Режим частоты кадров : ПеременныйЧастота кадров : 29,970 кадров/секСтандарт вещания : NTSCЦветовое пространство : YUVСубдискретизация насыщенности : 4:2:0Битовая глубина : 8 битТип развёртки : ЧересстрочнаяПорядок развёртки : Нижнее поле первоеМетод сжатия : С потерямиБит/(Пиксели*Кадры) : 0.319Временной код первого кадра : 01:00:00:00Оригинал временного кода : Group of pictures headerРазмер потока : 514 Мбайт (81%)Язык : EnglishDefault : ДаForced : Нет

Аудио #1Идентификатор : 1Формат : AC-3Формат/Информация : Audio Coding 3Идентификатор кодека : A_AC3Продолжительность : 21 м. 46 с.Вид битрейта : ПостоянныйБитрейт : 192 Кбит/секКаналы : 2 каналаРасположение каналов : Front: L RЧастота : 48,0 КГцЧастота кадров : 31,250 кадров/сек (1536 SPF)Битовая глубина : 16 битМетод сжатия : С потерямиРазмер потока : 29,9 Мбайт (5%)Заголовок : СТСЯзык : RussianServiceKind/String : Complete MainDefault : ДаForced : Нет

Аудио #2Идентификатор : 2Формат : AC-3Формат/Информация : Audio Coding 3Идентификатор кодека : A_AC3Продолжительность : 21 м. 47 с.Вид битрейта : ПостоянныйБитрейт : 192 Кбит/секКаналы : 2 каналаРасположение каналов : Front: L RЧастота : 48,0 КГцЧастота кадров : 31,250 кадров/сек (1536 SPF)Битовая глубина : 16 битМетод сжатия : С потерямиРазмер потока : 29,9 Мбайт (5%)Заголовок : Премьер Видео ФильмЯзык : RussianServiceKind/String : Complete MainDefault : НетForced : Нет

Аудио #3Идентификатор : 3Формат : AC-3Формат/Информация : Audio Coding 3Идентификатор кодека : A_AC3Продолжительность : 21 м. 46 с.Вид битрейта : ПостоянныйБитрейт : 192 Кбит/секКаналы : 2 каналаРасположение каналов : Front: L RЧастота : 48,0 КГцЧастота кадров : 31,250 кадров/сек (1536 SPF)Битовая глубина : 16 битМетод сжатия : С потерямиРазмер потока : 29,9 Мбайт (5%)Заголовок : РТРЯзык : RussianServiceKind/String : Complete MainDefault : НетForced : Нет

Аудио #4Идентификатор : 4Формат : AC-3Формат/Информация : Audio Coding 3Идентификатор кодека : A_AC3Продолжительность : 21 м. 46 с.Вид битрейта : ПостоянныйБитрейт : 192 Кбит/секКаналы : 2 каналаРасположение каналов : Front: L RЧастота : 48,0 КГцЧастота кадров : 31,250 кадров/сек (1536 SPF)Битовая глубина : 16 битМетод сжатия : С потерямиРазмер потока : 29,9 Мбайт (5%)Язык : EnglishServiceKind/String : Complete MainDefault : НетForced : Нет

Меню00:00:00.000 : en:Chapter 100:02:38.834 : en:Chapter 200:09:21.168 : en:Chapter 300:21:14.201 : en:Chapter 400:21:45.468 : en:Chapter 5
Сидировать, сидировать и еще раз сидировать
Информация о проекте:

Проект задумывался с целью собрать сериал в отличном качестве, в наиболее удобном контейнере MKV с сохранением качества, без малейшего пережатия и наполнением его разнообразными переводами.

Ирина (с форума DisneyJazz) - предоставление большинства серий в РТР озвучке в хорошем качестве.
UTAS, Pah'OK, Lexa1988-L1 - запись серий с СТС.
ALEKS KV - кодирование серий, оцифровка РТР-дорожек.
Stm69 - предоставление 1-3 кассет от ПВФ и оцифровка.
edrennikov88 - оцифровка 4 кассеты от ПВФ.
kinaman - помощь в оцифровке
AORE - скачивание оригинальных дисков R1, муксинг серий, синхронизация дорожек
Для продолжения работы над проектом требуется ваша посильная помощь:

<img class="smile" src="//static.t-ru.org/smiles/icon_arrow.gif" alt=""> Звуковые дорожки с любыми записанными сериями (или их фрагментами) в переводе РТР


Трекер:  [ 02-Июн-2018 15:54 ]

  

Скачать .torrent

Размер .torrent файла 116 KB


Размер: 22.62 GB
Хэш (hash) релиза: 552ec8c49dc91bd4d4aad01b88ea059501cccb89
Подписка на обновления:

Еще никто не оставлял запись к записи скачать торрент Джуманджи Jumanji: The Animated Series . Будь первым!

!Обратная связь