4K,UHD,3D,Blu-Ray,HD,DVD | Polskie Produkcje | Filmy Animowane

Скачать через торрент Даллас и Робо Dallas & Robo Фильм бесплатно в хорошем качестве torrent

Скачивайте на UnionPeer.org фильмы через торрент без регистрации. Новинки кино в хорошем качестве через торрент. На UnionPeer.org можно скачать через торрент фильмы 2014 и 2015 годов. Самые новые фильмы.

Скачать торрент Даллас и Робо Dallas & Robo бесплатно через .torrent фильм мультфильм сериал

Статистика раздачи
Размер:  482 MB   |    Зарегистрирован:  2 месяца 20 дней   |    .torrent скачан:  35 раз   |   
Раздают:  1  
   
загрузка...
 
Автор Сообщение

Galfimbul

avatar Galfimbul


Даллас и Робо / Dallas & Robo

Страна: США
Жанр: Комедия, приключения, фантастика
Продолжительность серии: ~22мин.
Год выпуска: 2018
Перевод: Любительский (двухголосый закадровый), [NewStation]
Русские субтитры: нет

Режиссёр: Энтони Стакки / Anthony Stacchi
Роли озвучивали: Джон Сина, Кэт Деннингс, Стивен Рут, Тим Блейк Нельсон, Дэна Снайдер, Милана Вайнтруб, Джанкарло Эспозито, Джейн Линч

Описание: Дерзкая космическая дальнобойщица Даллас и самопровозглашённый воин-поэт Робо, должны обходить байкеров-каннибалов, траки конкурентов и торговые автоматы с буррито, пытаясь выгадать лишний бакс в этом захудалом мире межпланетного сговора на торгах.

Доп. информация: присутствует ненормативная лексика!

Качество: WEBRip 1080p
Формат: MKV
Видео: AVC, 1920х1080, 16:9, 23,976 кадров/сек, ~2721 Кбит/сек
Аудио: [RUS] 48 kHz, AC-3, 2ch, ~256 kbps
Субтитры: нет

Предыдущие и альтернативные раздачи
Семпл: http://multi-up.com/1200204
GeneralUnique ID : 159555873856233585129110030177350390254 (0x780957F15640E93045EDDEEFA18F11EE)Complete name : D:\NewStation\Dallas.and.Robo.s01.WEBRip.1080p.NewStation\Dallas.and.Robo.S01E01.WEBRip.1080p.NewStation.mkvFormat : MatroskaFormat version : Version 4 / Version 2File size : 482 MiBDuration : 22 min 36 sOverall bit rate : 2 979 kb/sEncoded date : UTC 2018-06-01 14:54:48Writing application : mkvmerge v19.0.0 ('Brave Captain') 64-bitWriting library : libebml v1.3.5 + libmatroska v1.4.8

VideoID : 1Format : AVCFormat/Info : Advanced Video CodecFormat profile : [email protected] settings : CABAC / 2 Ref FramesFormat settings, CABAC : YesFormat settings, RefFrames : 2 framesCodec ID : V_MPEG4/ISO/AVCDuration : 22 min 36 sBit rate : 2 721 kb/sWidth : 1 920 pixelsHeight : 1 080 pixelsDisplay aspect ratio : 16:9Frame rate mode : ConstantFrame rate : 23.976 (24000/1001) FPSColor space : YUVChroma subsampling : 4:2:0Bit depth : 8 bitsScan type : ProgressiveBits/(Pixel*Frame) : 0.055Stream size : 440 MiB (91%)Default : YesForced : NoColor range : LimitedColor primaries : BT.2020Transfer characteristics : BT.709Matrix coefficients : BT.2020 non-constant

AudioID : 2Format : AC-3Format/Info : Audio Coding 3Codec ID : A_AC3Duration : 22 min 36 sBit rate mode : ConstantBit rate : 256 kb/sChannel(s) : 2 channelsChannel positions : Front: L RSampling rate : 48.0 kHzFrame rate : 31.250 FPS (1536 SPF)Bit depth : 16 bitsCompression mode : LossyStream size : 41.4 MiB (9%)Title : NewStationLanguage : RussianService kind : Complete MainDefault : YesForced : No


Трекер:  [ 01-Июн-2018 18:54 ]

  

Скачать .torrent

Размер .torrent файла 19 KB


Размер: 482 MB
Хэш (hash) релиза: 88d905ad699fedcee2ced1ee4f5b44bd806bcf0c
Подписка на обновления:

Еще никто не оставлял запись к записи скачать торрент Даллас и Робо Dallas & Robo . Будь первым!

!Обратная связь