Watch show | Foundations | Son Yorum

Скачать через торрент Ранетки Сезон: 1 Фильм бесплатно в хорошем качестве torrent

Скачивайте на UnionPeer.org фильмы через торрент без регистрации. Новинки кино в хорошем качестве через торрент. На UnionPeer.org можно скачать через торрент фильмы 2014 и 2015 годов. Самые новые фильмы.

Скачать торрент Ранетки Сезон: 1 бесплатно через .torrent фильм мультфильм сериал

Статистика раздачи
Размер:  9.67 GB   |    Зарегистрирован:  2 месяца 19 дней   |    .torrent скачан:  16 раз   |   
Раздают:  1  
   
загрузка...
 
Автор Сообщение

Galfimbul

avatar Galfimbul


Ранетки

Год выпуска: 2008
Производство: Россия, Канал СТС
Жанр: Молодежный ситком
Продолжительность: 20 х ~ 00:48:09
Субтитры: Нет

Режиссёр: Сергей Арланов, Карен Захаров, Олег Смольников

В ролях: Наталья Мильниченко, Евгения Огурцова, Елена Третьякова, Анна Руднева, Валерия Козлова, Артур Сопельник, Вадим Андреев, Валерий Баринов, Александр Никулин, Галина Польских, Василий Лыкшин

Описание: Закончились летние каникулы и группа «Ранетки» опять в сборе, но надолго ли? Пока Наташа, закадычная подруга барабанщицы Леры, отдыхала в Германии у своего отца, Лера нашла себе новых друзей и не хочет больше играть в группе. У Женьки совсем не хватает времени на своих подруг - она влюбилась и теперь ее мысли целиком и полностью заняты Колей Платоновым, мальчиком из параллельного класса.Лена очень переживает: после чудесных летних каникул, которые она провела вместе с родителями и своим новорожденным братом, ей снова предстоит разлука с мамой и папой - их ждет новая командировка. Ане тоже не до музыки, ей предстоит тяжелый выбор: Матвей или Антон, кому же принадлежит ее сердце ?

Реклама: Нет

Качество: WEBRip
Формат: AVI
Видео кодек: XviD
Аудио кодек: MP3
Видео: XviD, ~ 1241 Кбит/с, 720x400
Аудио: MP3, 2 ch, 192 Кбит/с
Релиз: Dmitry-tv
Рип: HDmitry-tv
Complete name : I:\Ranetki.S01E01 -[WEBRip]-.avi
Format : AVI
Format/Info : Audio Video Interleave
File size : 499 MiB
Duration : 48 min 9 s
Overall bit rate : 1 449 kb/s
Writing application : Lavf58.10.100
Comment : HDmitry-tv

Video
ID : 0
Format : AVC
Format/Info : Advanced Video Codec
Format profile : [email protected]
Format settings, CABAC : Yes
Format settings, ReFrames : 2 frames
Codec ID : H264
Duration : 48 min 9 s
Bit rate : 1 241 kb/s
Width : 720 pixels
Height : 400 pixels
Display aspect ratio : 16:9
Frame rate mode : Variable
Frame rate : 25.000 FPS
Color space : YUV
Chroma subsampling : 4:2:0
Bit depth : 8 bits
Scan type : Progressive
Bits/(Pixel*Frame) : 0.172
Stream size : 428 MiB (86%)
Writing library : x264 core 155 r2901
Encoding settings : cabac=1 / ref=1 / deblock=1:0:0 / analyse=0x3:0x133 / me=hex / subme=5 / psy=1 / psy_rd=1.00:0.00 / mixed_ref=0 / me_range=16 / chroma_me=1 / trellis=0 / 8x8dct=1 / cqm=0 / deadzone=21,11 / fast_pskip=1 / chroma_qp_offset=0 / threads=3 / lookahead_threads=1 / sliced_threads=0 / nr=0 / decimate=1 / interlaced=0 / bluray_compat=0 / constrained_intra=0 / bframes=3 / b_pyramid=0 / b_adapt=1 / b_bias=0 / direct=0 / weightb=1 / open_gop=0 / weightp=2 / keyint=250 / keyint_min=25 / scenecut=40 / intra_refresh=0 / rc_lookahead=40 / rc=abr / mbtree=1 / bitrate=1241 / ratetol=1.0 / qcomp=0.60 / qpmin=10 / qpmax=51 / qpstep=4 / vbv_maxrate=24000 / vbv_bufsize=24000 / nal_hrd=none / filler=0 / ip_ratio=1.40 / aq=1:1.00

Audio
ID : 1
Format : MPEG Audio
Format version : Version 1
Format profile : Layer 3
Codec ID : 55
Codec ID/Hint : MP3
Duration : 48 min 9 s
Bit rate mode : Constant
Bit rate : 192 kb/s
Channel(s) : 2 channels
Sampling rate : 48.0 kHz
Compression mode : Lossy
Stream size : 66.1 MiB (13%)
Alignment : Aligned on interleaves
Interleave, duration : 24 ms (0.60 video frame)
Interleave, preload duratio : 2712 ms
Предыдущие и альтернативные раздачи

Трекер:  [ 01-Июн-2018 09:42 ]

  

Скачать .torrent

Размер .torrent файла 98 KB


Размер: 9.67 GB
Хэш (hash) релиза: 23556d6308dcda12529a22aacb6ce420a2798ad4
Подписка на обновления:

Еще никто не оставлял запись к записи скачать торрент Ранетки Сезон: 1 . Будь первым!

!Обратная связь