Watch Movie | Comedy Superstar | Thirty Seconds To Mars

Скачать через торрент Эншен и Волшебный Планшет: Ещё Одна Принцесса-соня бесплатно Аниме Все серии на русском torrent

Статистика раздачи
Размер:  1000 MB   |    Зарегистрирован:  17 дней   |    .torrent скачан:  18 раз   |   
Раздают:  1  
   
загрузка...
 
Автор Сообщение

Galfimbul

avatar Galfimbul



Страна: Япония
Год выпуска: 2017
Жанр: приключения
Тип: ONA
Продолжительность: 2 эп, ~12 мин серия (обе серии в одном файле)
Режиссер: Камияма Кэндзи
Студия: Signal MD

Субтитры:
1: полные BBNG & Zabr
Андрей Зайцев (перевод) Seiya & AleX_MytH (редакция) Surokune & Zabr (оформление)

Озвучка:
1: Отсутствует <img class="smile" src="//static.t-ru.org/smiles/icon_sad.gif" alt="">
Порядок просмотра:
1: Ancien To Mahou No Tablet - эта раздача
2: Hirune Hime
Информационные ссылки: MAL | World Art | AniDB
Описание:

© ([url=]World Art[/url]) (Shikimori)
Качество: BDRip
Тип видео: Без хардсаба, Без линковки
Автор рипа: Vladdrako [Beatrice-Raws]
Формат видео: MKV
Главы: присутствуют
Совместимость с бытовыми плеерами: нет
Видео: х264, 10 bit, 1920x1080, ~4876 kbps, 23.976 fps
Аудио JAP: FLAC, ~670 kbps, 48.0 kHz, 2 ch (в составе контейнера)
Субтитры RUS (1): ASS (внешними файлами)
<div class="sp-wrap">
<div class="sp-head folded">Media Info</div>
<div class="sp-body">

GeneralUnique ID : 133317679683538969066092177725878827780 (0x644C0D17A24A18E04D548C55249DFB04)Complete name : E:\Раздачи\Hirune Hime Special\[1] Hirune Hime Movie Sp.mkvFormat : MatroskaFormat version : Version 4 / Version 2File size : 997 MiBDuration : 25 min 7 sOverall bit rate mode : VariableOverall bit rate : 5 548 kb/sMovie name : Hirune Hime Movie SpEncoded date : UTC 2018-03-01 05:29:41Writing application : mkvmerge v21.0.0 ('Tardigrades Will Inherit The Earth') 64-bitWriting library : libebml v1.3.5 + libmatroska v1.4.8

VideoID : 1Format : AVCFormat/Info : Advanced Video CodecFormat profile : High [email protected] settings, CABAC : YesFormat settings, RefFrames : 4 framesCodec ID : V_MPEG4/ISO/AVCDuration : 25 min 7 sBit rate : 4 876 kb/sWidth : 1 920 pixelsHeight : 1 080 pixelsDisplay aspect ratio : 16:9Frame rate mode : ConstantFrame rate : 23.976 (24000/1001) FPSColor space : YUVChroma subsampling : 4:2:0Bit depth : 10 bitsScan type : ProgressiveBits/(Pixel*Frame) : 0.098Stream size : 876 MiB (88%)Title : Vladdrako [Beatrice-Raws]Writing library : x264 core 152 r2851M ba24899 (DJATOM's build)Encoding settings : cabac=1 / ref=4 / deblock=1:1:-1 / analyse=0x3:0x113 / me=umh / subme=9 / psy=1 / psy_rd=1.00:0.00 / mixed_ref=1 / me_range=32 / chroma_me=1 / trellis=2 / 8x8dct=1 / cqm=0 / deadzone=21,11 / fast_pskip=1 / chroma_qp_offset=-2 / threads=12 / lookahead_threads=2 / sliced_threads=0 / nr=0 / decimate=1 / interlaced=0 / bluray_compat=0 / constrained_intra=0 / bframes=9 / b_pyramid=2 / b_adapt=2 / b_bias=0 / direct=1 / weightb=1 / open_gop=0 / weightp=2 / keyint=250 / keyint_min=23 / scenecut=40 / intra_refresh=0 / rc=crf / mbtree=0 / crf=15.0000 / qcomp=0.72 / qpmin=0 / qpmax=81 / qpstep=4 / ip_ratio=1.40 / pb_ratio=1.30 / aq=1:0.85Language : JapaneseDefault : YesForced : NoColor range : LimitedColor primaries : BT.709Transfer characteristics : BT.709Matrix coefficients : BT.709

AudioID : 2Format : FLACFormat/Info : Free Lossless Audio CodecCodec ID : A_FLACDuration : 25 min 7 sBit rate mode : VariableBit rate : 670 kb/sChannel(s) : 2 channelsChannel positions : Front: L RSampling rate : 48.0 kHzFrame rate : 11.719 FPS (4096 SPF)Bit depth : 16 bitsStream size : 120 MiB (12%)Title : [Original]Writing library : libFLAC 1.3.2 (UTC 2017-01-01)Language : JapaneseDefault : YesForced : No

Menu00:00:00.000 : :Avant00:00:06.006 : :Part A00:15:31.931 : :Part B00:23:07.386 : :ED
File: E:\Раздачи\Hirune Hime Special\[1] Hirune Hime Movie Sp.mkv Duration: 00:25:08 (1507.51) Track #1: video (Vladdrako [Beatrice-Raws]) lang: jpn (2) codc: V_MPEG4/ISO/AVC -> H264/AVC (22) reso: 1920x1080 -> 16:9 fram: 23.976 fps rate: 4876 kbps (4876.17) dura: 00:25:07 (1507.46) size: 876.27 MB (918830691) Track #2: audio ([Original]) lang: jpn -> Japanese (2) codc: A_FLAC -> Other (15) chan: 2 -> Stereo samp: 48000 Hz rate: 670 kbps (669.92) dura: 00:25:07 (1507.50) size: 120.39 MB (126237616) Sizes: (check sanity) disk: 996.95 MB (1045378660) trac: 996.65 MB (1045068307) [based on track size] bitr: 996.65 MB (1045065143) [based on bitrate] tdif: 303.08 KB (310353) 0.02% bdif: 306.17 KB (313516) 0.02%
</div>
</div>
1. Эншен и Волшебный Планшет: Ещё Одна Принцесса-соня

В данном релизе озвучка и субтитры выложены внешними файлами.
Для просмотра на ПК

с озвучкой: переместите mka файлы из папки "Rus Sound -> [Команда/ники дабберов]" и ass файлы из папки "Rus Subs -> [Команда/ники сабберов] Надписи" (по желанию) в папку с видео.
с субтитрами: переместите ass файлы из папки "Rus Subs -> [Команда/ники сабберов] Полные" в папку с видео.

90% современных плееров подключат дорожки автоматически. Так же рекомендуется указать rus и(ли) ru, как язык по умолчанию для выбора дорожек, в настройках вашего плеера и(ли) рендера. Подробнее о настройке плеера можно прочитать тут.
Если релиз содержит 10 битное видео, и у вас проблемы с качеством картинки, инструкцию по просмотру можно найти тут.
Все видео файлы в моих релизах пересобираются. Вы не сможете раздавать их на других раздачах.
Если в релизе есть раздел "Порядок просмотра":

Скачайте все части тайтла.
Поместите все раздачи (видео и необходимые дорожки) в одну папку.
Все сезоны и серии будут в необходимом порядке для просмотра.


Трекер:  [ 01-Июн-2018 00:30 ]

  

Скачать .torrent

Размер .torrent файла 41 KB


Размер: 1000 MB
Хэш (hash) релиза: c00630c9acaad167b677089a239415a91dae14ae
Подписка на обновления:

Еще никто не оставлял запись к записи скачать торрент Эншен и Волшебный Планшет: Ещё Одна Принцесса-соня . Будь первым!

!Обратная связь