Curse of the Nun | battlebots 2015 s03e20 720p web x264-tbs[eztv] mkv | Film streaming 2018

Скачать через торрент Горизонты любви Серии: 1-4 из 4 Фильм бесплатно в хорошем качестве torrent

Скачивайте на UnionPeer.org фильмы через торрент без регистрации. Новинки кино в хорошем качестве через торрент. На UnionPeer.org можно скачать через торрент фильмы 2014 и 2015 годов. Самые новые фильмы.

Скачать торрент Горизонты любви Серии: 1-4 из 4 бесплатно через .torrent фильм мультфильм сериал

Статистика раздачи
Размер:  2.06 GB   |    Зарегистрирован:  4 месяца 18 дней   |    .torrent скачан:  45 раз   |   
Раздают:  1  
   
загрузка...
 
Автор Сообщение

Galfimbul

avatar Galfimbul


Горизонты любви

Год выпуска: 2018
Производство: Одесская киностудия
Жанр: мелодрама
Продолжительность: ~00:44:00 серия
Субтитры: нет

Режиссёр: Виктор Кустов

В ролях: Даниил Белых, Марина Денисова, Дмитрий Сарансков, Тимофей Криницкий, Сергей Фролов, Иванна Ницак, Ольга Неверко, Наталья Батрак, Любомирас Лауцявичюс, Людмила Рымарь, Владимир Питеров

Описание: Красавице Варе изменяет муж. Попав в тюрьму, в своих бедах он винит уже бывшую жену. Варя, разочаровавшись в мужчинах, одна растит маленькую дочку. Неожиданно в жизни Вари появляется школьный учитель Илья, тоже переживающий сложный жизненный период...

Реклама: Нет.

Sample

Качество: SATRip-AVC - Серый1779
Формат: MKV
Видео кодек: H.264
Аудио кодек: AC3
Видео: MPEG4 AVC Video, H264, 16:9, 720x400, 25 fps, ~1500 kbps, 0.208 bit/pixel
Аудио: AC3 Dolby Digital, 48.0 kHz, 2/0 (L,R) ch, 192 kbps
General
Unique ID : 185962514986635142664128561831958439897 (0x8BE713DE8D727247A888FE8628AE67D9)
Complete name : D:\Горизонты любви.(2018).SATRip.(AVC).Files-x\01.Горизонты любви.(2018).SATRip.(AVC).by.Серый1779.Files-x.mkv
Format : Matroska
Format version : Version 2
File size : 534 MiB
Duration : 44 min 2 s
Overall bit rate : 1 694 kb/s
Encoded date : UTC 2018-05-27 22:43:40
Writing application : mkvmerge v7.8.0 ('River Man') 32bit built on Apr 3 2015 12:11:22
Writing library : libebml v1.3.1 + libmatroska v1.4.2

Video
ID : 1
Format : AVC
Format/Info : Advanced Video Codec
Format profile : [email protected]
Format settings : CABAC / 9 Ref Frames
Format settings, CABAC : Yes
Format settings, ReFrames : 9 frames
Codec ID : V_MPEG4/ISO/AVC
Duration : 44 min 2 s
Bit rate : 1 500 kb/s
Width : 720 pixels
Height : 400 pixels
Display aspect ratio : 16:9
Frame rate mode : Constant
Frame rate : 25.000 FPS
Color space : YUV
Chroma subsampling : 4:2:0
Bit depth : 8 bits
Scan type : Progressive
Bits/(Pixel*Frame) : 0.208
Stream size : 462 MiB (87%)
Writing library : x264 core 146 r2538 121396c
Encoding settings : cabac=1 / ref=9 / deblock=1:-3:-3 / analyse=0x3:0x133 / me=umh / subme=9 / psy=1 / psy_rd=1.00:0.15 / mixed_ref=1 / me_range=32 / chroma_me=1 / trellis=2 / 8x8dct=1 / cqm=0 / deadzone=21,11 / fast_pskip=0 / chroma_qp_offset=-3 / threads=18 / lookahead_threads=3 / sliced_threads=0 / nr=0 / decimate=1 / interlaced=0 / bluray_compat=0 / constrained_intra=0 / bframes=9 / b_pyramid=2 / b_adapt=2 / b_bias=0 / direct=1 / weightb=1 / open_gop=0 / weightp=2 / keyint=250 / keyint_min=25 / scenecut=40 / intra_refresh=0 / rc=2pass / mbtree=0 / bitrate=1500 / ratetol=1.0 / qcomp=0.60 / qpmin=0 / qpmax=69 / qpstep=4 / cplxblur=20.0 / qblur=0.5 / ip_ratio=1.40 / pb_ratio=1.30 / aq=2:1.00
Default : Yes
Forced : No
Color range : Limited
Color primaries : BT.601 PAL
Transfer characteristics : BT.470 System B/G
Matrix coefficients : BT.470 System B/G

Audio
ID : 2
Format : AC-3
Format/Info : Audio Coding 3
Codec ID : A_AC3
Duration : 44 min 2 s
Bit rate mode : Constant
Bit rate : 192 kb/s
Channel(s) : 2 channels
Channel positions : Front: L R
Sampling rate : 48.0 kHz
Frame rate : 31.250 FPS (1536 SPF)
Bit depth : 16 bits
Compression mode : Lossy
Stream size : 60.5 MiB (11%)
Service kind : Complete Main
Default : Yes
Forced : No


Трекер:  [ 30-Май-2018 11:42 ]

  

Скачать .torrent

Размер .torrent файла 11 KB


Размер: 2.06 GB
Хэш (hash) релиза: fd174016d3e38b0a37f0d4d1d741a1c4bbb161f6
Подписка на обновления:

Торренты, похожие на Горизонты любви Серии: 1-4 из 4 скачать торрент

Форум Название Автор Размер S L Добавлен
Российские сериалы ·· Горизонты любви / Серии: 1-4 из 4 (Виктор Кустов) [2018, мелодрама, SATRip] Galfimbul 24846458882.31 GB 0 0 1527669775

11:42

30-Май-18

Еще никто не оставлял запись к записи скачать торрент Горизонты любви Серии: 1-4 из 4 . Будь первым!

!Обратная связь