☑ Fiche du Jeu | Kostenlos7 | Corin Hardy

Скачать через торрент Горизонты любви Серии: 1-4 из 4 Фильм бесплатно в хорошем качестве torrent

Скачивайте на UnionPeer.org фильмы через торрент без регистрации. Новинки кино в хорошем качестве через торрент. На UnionPeer.org можно скачать через торрент фильмы 2014 и 2015 годов. Самые новые фильмы.

Скачать торрент Горизонты любви Серии: 1-4 из 4 бесплатно через .torrent фильм мультфильм сериал

Статистика раздачи
Размер:  2.31 GB   |    Зарегистрирован:  4 месяца 22 дня   |    .torrent скачан:  48 раз   |   
Раздают:  1  
   
загрузка...
 
Автор Сообщение

Galfimbul

avatar Galfimbul


Горизонты любви

Год выпуска: 2018
Производство: Одесская киностудия
Жанр: мелодрама
Продолжительность: ~00:44:00 серия
Субтитры: нет

Режиссёр: Виктор Кустов

В ролях: Даниил Белых, Марина Денисова, Дмитрий Сарансков, Тимофей Криницкий, Сергей Фролов, Иванна Ницак, Ольга Неверко, Наталья Батрак, Любомирас Лауцявичюс, Людмила Рымарь, Владимир Питеров

Описание: Красавице Варе изменяет муж. Попав в тюрьму, в своих бедах он винит уже бывшую жену. Варя, разочаровавшись в мужчинах, одна растит маленькую дочку. Неожиданно в жизни Вари появляется школьный учитель Илья, тоже переживающий сложный жизненный период...

Реклама: Нет.

Sample

Качество: SATRip
Формат: AVI
Видео кодек: XviD
Аудио кодек: AC3
Видео: 720x400 (1.80:1), 25 fps, XviD build 73 ~1700 kbps avg, 0.236 bit/pixel
Аудио: 48.0 kHz, AC3 Dolby Digital, 2/0 (L,R) ch, ~ 192 kbps
General
Complete name : D:\Горизонты любви 2018\01.Горизонты любви.avi
Format : AVI
Format/Info : Audio Video Interleave
File size : 599 MiB
Duration : 44 min 2 s
Overall bit rate : 1 901 kb/s
Writing application : VirtualDubMod 1.5.10.3 | www.virtualdub-fr.org || (build 2550/release)
Writing library : VirtualDubMod build 2550/release

Video
ID : 0
Format : MPEG-4 Visual
Format profile : Advanced [email protected]
Format settings : BVOP1
Format settings, BVOP : 1
Format settings, QPel : No
Format settings, GMC : No warppoints
Format settings, Matrix : Default (MPEG)
Codec ID : XVID
Codec ID/Hint : XviD
Duration : 44 min 2 s
Bit rate : 1 699 kb/s
Width : 720 pixels
Height : 400 pixels
Display aspect ratio : 16:9
Frame rate : 25.000 FPS
Color space : YUV
Chroma subsampling : 4:2:0
Bit depth : 8 bits
Scan type : Progressive
Compression mode : Lossy
Bits/(Pixel*Frame) : 0.236
Stream size : 535 MiB (89%)
Writing library : XviD 73

Audio
ID : 1
Format : AC-3
Format/Info : Audio Coding 3
Codec ID : 2000
Duration : 44 min 2 s
Bit rate mode : Constant
Bit rate : 192 kb/s
Channel(s) : 2 channels
Channel positions : Front: L R
Sampling rate : 48.0 kHz
Frame rate : 31.250 FPS (1536 SPF)
Bit depth : 16 bits
Compression mode : Lossy
Stream size : 60.5 MiB (10%)
Alignment : Split accross interleaves
Interleave, duration : 40 ms (1.00 video frame)
Interleave, preload duratio : 500 ms
Service kind : Complete Main


Трекер:  [ 30-Май-2018 11:42 ]

  

Скачать .torrent

Размер .torrent файла 12 KB


Размер: 2.31 GB
Хэш (hash) релиза: 2d66b161421bb39a0489527d78fe4d85987861c2
Подписка на обновления:

Торренты, похожие на Горизонты любви Серии: 1-4 из 4 скачать торрент

Форум Название Автор Размер S L Добавлен
Российские сериалы ·· Горизонты любви / Серии: 1-4 из 4 (Виктор Кустов) [2018, мелодрама, SATRip-AVC] Galfimbul 22136772322.06 GB 0 0 1527669784

11:43

30-Май-18

Еще никто не оставлял запись к записи скачать торрент Горизонты любви Серии: 1-4 из 4 . Будь первым!

!Обратная связь